↑↓Torrent.by
Поиск
Логин: Регистрация
Пароль: Восстановить пароль
Загрузка...

Аксель / A-X-L (2018) BDRip-AVC от OlLanDGroup | iTunes

Скачать aksel-a-x-l-2018-bdrip-avc-ot-ollandgroup-itunes.torrent
U Магнитная ссылка Размер: 1.83 GB Раздают: 765 Качают: 220 Добавлен: 2019-01-01 11:35:37
Аксель / A-X-L (2018) BDRip-AVC от OlLanDGroup | iTunes

Название: Аксель
Оригинальное название: A-X-L
Год выпуска: 2018
Жанр:  Фантастика, приключения, семейный
Выпущено: США, Global Road Entertainment, Lakeshore Entertainment, Phantom Four Films
Режиссер: Оливер Дэйли
В ролях: Алекс Нюстадтер, Томас Джейн, Бекки Джи, Тед МакГинли, Лу Тейлор Пуччи, Амин Наземзадех, Нико Гуардадо, Эрик Этебари, Алекс МакНиколл, Дориан Кинги, Патрисия де Леон, Стэйси Арвен Рааб, Джонатан Кэмп, Сэм Аптон, Мадлен Бертани, Мелисса Вердуго, Эшли Гибсон, Доминик Веддер, Эндрю Ортенберг

О фильме: Юный мотоциклист Майлз случайно находит новую военную разработку - гигантскую собаку-робота по имени Аксель. Обладая искусственным интеллектом следующего поколения, но с огромным сердцем верного пса, Аксель быстро становится лучшим другом парня. Но военные не намерены просто так отказаться от металлического зверя, который превзошел в развитии их самые смелые ожидания. История настоящей дружбы и преданности вышла на новый технологический уровень, но вечные законы жизни остались прежними: ты всегда в ответе за тех, кого приручил.

Качество: BDRip (AVC)
Видео: MPEG-4 AVC, 1824 Кбит/с, 1024x426, 23.976 кадр/с
Аудио: Русский (AC3, 6 ch, 384 Кбит/с), английский (AC3, 6 ch, 448 Кбит/с)
Размер: 1.83 ГБ
Продолжительность: 01:38:37
Перевод: Дублированный
Субтитры: Английские

Озвучивание - Дублированное (iTunes)
Сохранены оригинальные чаптеры как на Blu-Ray.

Релиз:


[+] Инфо-файл

Общее
Уникальный идентификатор                 : 189860903005429096869942777656312852095 (0x8ED5E13CF99DD03B9BF82A6A5227EE7F)
Полное имя                               : D:ЗагрузкиA.X.L.2018.BDRip(AVC).OlLanDGroup.mkv
Формат                                   : Matroska
Версия формата                           : Version 4 / Version 2
Размер файла                             : 1,83 Гбайт
Продолжительность                        : 1 ч. 38 м.
Общий поток                              : 2656 Кбит/сек
Название фильма                          : A.X.L.2018   OlLanDGroup
Дата кодирования                         : UTC 2018-12-31 21:16:44
Программа кодирования                    : mkvmerge v6.5.0 ('Isn't she lovely') built on Oct 20 2013 12:50:05
Библиотека кодирования                   : libebml v1.3.0 + libmatroska v1.4.1
Обложка                                  : Yes
Attachments                              : Cover - A.X.L..png

Видео
Идентификатор                            : 1
Формат                                   : AVC
Формат/Информация                        : Advanced Video Codec
Профиль формата                          : High@L4.1
Настройки формата                        : CABAC / 10 Ref Frames
Параметр CABAC формата                   : Да
Параметр ReFrames формата                : 10 кадров
Идентификатор кодека                     : V_MPEG4/ISO/AVC
Продолжительность                        : 1 ч. 38 м.
Битрейт                                  : 1824 Кбит/сек
Ширина                                   : 1024 пикселя
Высота                                   : 426 пикселей
Соотношение сторон                       : 2,40:1
Режим частоты кадров                     : Постоянный
Частота кадров                           : 23,976 (24000/1001) кадра/сек
Цветовое пространство                    : YUV
Субдискретизация насыщенности            : 4:2:0
Битовая глубина                          : 8 бит
Тип развёртки                            : Прогрессивная
Бит/(Пиксели*Кадры)                      : 0.174
Размер потока                            : 1,22 Гбайт (67%)
Библиотека кодирования                   : x264 core 146 r2538 121396c
Настройки программы                      : cabac=1 / ref=10 / deblock=1:-3:-3 / analyse=0x3:0x113 / me=umh / subme=11 / psy=1 / psy_rd=1.00:0.03 / mixed_ref=1 / me_range=48 / chroma_me=1 / trellis=2 / 8x8dct=1 / cqm=0 / deadzone=21,11 / fast_pskip=1 / chroma_qp_offset=-3 / threads=6 / lookahead_threads=1 / sliced_threads=0 / nr=0 / decimate=1 / interlaced=0 / bluray_compat=0 / constrained_intra=0 / bframes=11 / b_pyramid=2 / b_adapt=2 / b_bias=0 / direct=3 / weightb=1 / open_gop=0 / weightp=2 / keyint=240 / keyint_min=23 / scenecut=40 / intra_refresh=0 / rc_lookahead=40 / rc=2pass / mbtree=0 / bitrate=1824 / ratetol=1.0 / qcomp=0.60 / qpmin=0 / qpmax=69 / qpstep=4 / cplxblur=20.0 / qblur=0.5 / vbv_maxrate=50000 / vbv_bufsize=62500 / nal_hrd=none / filler=0 / ip_ratio=1.40 / pb_ratio=1.30 / aq=1:1.00
Язык                                     : English
Default                                  : Да
Forced                                   : Нет

Аудио #1
Идентификатор                            : 2
Формат                                   : AC-3
Формат/Информация                        : Audio Coding 3
Идентификатор кодека                     : A_AC3
Продолжительность                        : 1 ч. 38 м.
Вид битрейта                             : Постоянный
Битрейт                                  : 384 Кбит/сек
Каналы                                   : 6 каналов
Расположение каналов                     : Front: L C R, Side: L R, LFE
Частота                                  : 48,0 КГц
Частота кадров                           : 31,250 кадров/сек (1536 SPF)
Битовая глубина                          : 16 бит
Метод сжатия                             : С потерями
Размер потока                            : 271 Мбайт (14%)
Заголовок                                : Дублированный (iTunes)
Язык                                     : Russian
Service kind                             : Complete Main
Default                                  : Да
Forced                                   : Нет

Аудио #2
Идентификатор                            : 3
Формат                                   : AC-3
Формат/Информация                        : Audio Coding 3
Идентификатор кодека                     : A_AC3
Продолжительность                        : 1 ч. 38 м.
Вид битрейта                             : Постоянный
Битрейт                                  : 448 Кбит/сек
Каналы                                   : 6 каналов
Расположение каналов                     : Front: L C R, Side: L R, LFE
Частота                                  : 48,0 КГц
Частота кадров                           : 31,250 кадров/сек (1536 SPF)
Битовая глубина                          : 16 бит
Метод сжатия                             : С потерями
Размер потока                            : 316 Мбайт (17%)
Заголовок                                : [Original]
Язык                                     : English
Service kind                             : Complete Main
Default                                  : Нет
Forced                                   : Нет

Текст #1
Идентификатор                            : 4
Формат                                   : UTF-8
Идентификатор кодека                     : S_TEXT/UTF8
Идентификатор кодека/Информация          : UTF-8 Plain Text
Заголовок                                : Full
Язык                                     : English
Default                                  : Нет
Forced                                   : Нет

Текст #2
Идентификатор                            : 5
Формат                                   : UTF-8
Идентификатор кодека                     : S_TEXT/UTF8
Идентификатор кодека/Информация          : UTF-8 Plain Text
Заголовок                                : SDH
Язык                                     : English
Default                                  : Нет
Forced                                   : Нет

Меню
00:00:00.000                             : en:Chapter 01
00:05:03.886                             : en:Chapter 02
00:10:06.063                             : en:Chapter 03
00:16:35.494                             : en:Chapter 04
00:19:37.926                             : en:Chapter 05
00:23:11.848                             : en:Chapter 06
00:30:32.288                             : en:Chapter 07
00:36:25.266                             : en:Chapter 08
00:44:47.643                             : en:Chapter 09
00:49:35.263                             : en:Chapter 10
00:56:14.788                             : en:Chapter 11
01:01:15.421                             : en:Chapter 12
01:09:45.139                             : en:Chapter 13
01:14:41.768                             : en:Chapter 14
01:18:30.414                             : en:Chapter 15
01:25:27.080                             : en:Chapter 16




Скриншоты:
[+] Всего файлов в раздаче - 1:
A.X.L.2018.BDRip(AVC).OlLanDGroup.mkv1.83 GB

Показать еще раздачи по запросу аксель:
2019-01-06 U Аксель / A-X-L (2018) BDRip-AVC | iTunes 745.39 MB ↑ 89 ↓ 13
2019-01-04 U Аксель / A-X-L (2018) BDRip-HEVC 1080p | iTunes 1К3.95 GB ↑ 146 ↓ 35
2019-01-03 U Аксель / A-X-L (2018) BDRip от ExKinoRay | iTunes 1.42 GB ↑ 65 ↓ 29
2019-01-02 U Аксель / A-X-L (2018) BDRip 1080p | iTunes 11.73 GB ↑ 1732 ↓ 731
2019-01-01 U Аксель / A-X-L (2018) BDRemux 1080p | iTunes 25.56 GB ↑ 54 ↓ 575
2019-01-01 U Аксель / A-X-L (2018) BDRip от MegaPeer | iTunes 747.47 MB ↑ 276 ↓ 53
2019-01-01 U Аксель / A-X-L (2018) BDRip от MegaPeer | iTunes 1.42 GB ↑ 1610 ↓ 406

Отзывы
shmel24
Ох уж эти "военные"... они постоянно что-то теряют...

Зарегистрируйтесь чтобы добавить комментарий.
Обратная связь
Copyleft ©