↑↓Torrent.by
Поиск
Логин: Регистрация
Пароль: Восстановить пароль
Загрузка...

Новогодний концерт - «Фантастическая ночь» (2018-19) DVB

Скачать novogodniy-koncert-fantasticheskaya-noch-2018-19-dvb.torrent
U Магнитная ссылка Размер: 2.91 GB Раздают: 103 Качают: 38 Добавлен: 2019-01-01 11:37:42
Новогодний концерт - «Фантастическая ночь» (2018-19) DVB

Жанр:  POP
Год выпуска: 2018
Продолжительность: 02:57:05

Описание: В этом концерте звезды украинской эстрады София Ротару, Ирина Билык, Злата Огневич, Олег Винник, Оля Полякова, Настя Каменских, Верка Сердючка и другие исполнили свои хиты 2018 года.

Формат: MKV
Качество: DVB
Видео кодек: H.264
Аудио кодек: MP2
Видео: H.264, ~2 100 Kbps, 720x576@1024x576 (16:9), 25fps
Аудио: MP2, 48000Hz, 2ch, 192 kbps
[+] MedaInfo
New_Year_2019.mkv
Format                                   : Matroska
Format version                           : Version 4 / Version 2
File size                                : 2.91 GiB
Duration                                 : 2 h 57 min
Overall bit rate                         : 2 353 kb/s
Writing application                      : Lavf57.71.100
Writing library                          : Lavf57.71.100
ErrorDetectionType                       : Per level 1

Video
ID                                       : 1
Format                                   : AVC
Format/Info                              : Advanced Video Codec
Format profile                           : Main@L3
Format settings                          : CABAC / 4 Ref Frames
Format settings, CABAC                   : Yes
Format settings, ReFrames                : 4 frames
Codec ID                                 : V_MPEG4/ISO/AVC
Duration                                 : 2 h 57 min
Bit rate                                 : 2 114 kb/s
Width                                    : 720 pixels
Height                                   : 576 pixels
Display aspect ratio                     : 16:9
Frame rate mode                          : Constant
Frame rate                               : 25.000 FPS
Standard                                 : PAL
Color space                              : YUV
Chroma subsampling                       : 4:2:0
Bit depth                                : 8 bits
Scan type                                : MBAFF
Scan type, store method                  : Interleaved fields
Scan order                               : Top Field First
Bits/(Pixel*Frame)                       : 0.204
Stream size                              : 2.62 GiB (90%)
Default                                  : Yes
Forced                                   : No
Color range                              : Limited
Color primaries                          : BT.601 PAL
Transfer characteristics                 : BT.470 System B/G
Matrix coefficients                      : BT.470 System B/G
DURATION                                 : 02:57:06,800000000

Audio
ID                                       : 2
Format                                   : MPEG Audio
Format version                           : Version 1
Format profile                           : Layer 2
Format settings                          : Joint stereo / Intensity Stereo + MS Stereo
Codec ID                                 : A_MPEG/L2
Codec ID/Hint                            : MP2
Duration                                 : 2 h 57 min
Bit rate mode                            : Constant
Bit rate                                 : 192 kb/s
Channel(s)                               : 2 channels
Sampling rate                            : 48.0 kHz
Compression mode                         : Lossy
Delay relative to video                  : 192 ms
Stream size                              : 243 MiB (8%)
Language                                 : Ukrainian
Default                                  : Yes
Forced                                   : No
DURATION                                 : 02:57:05,888000000



Скриншоты:
[+] Всего файлов в раздаче - 1:
New_Year_2019.mkv2.91 GB

Текущая раздача:
ДатаКомментарии    РазмерПиры
2019-01-01 U Новогодний концерт - «Фантастическая ночь» (2018-19) DVB 2.91 GB ↑ 103 ↓ 38

Показать еще раздачи по запросу новогодний:
2019-01-20 U Новый Comedy Club. Новогодний выпуск. Караоке Star [01-02 из 02] [эфир от 31.12] (2018) HDTV 1080i 8.73 GB ↑ 21 ↓ 6
2019-01-14 U Новогодний экспресс / Любовь дальнего следования [01-02 из 02] (2018) WEB-DLRip от Files-x 2.19 GB ↑ 37 ↓ 5
2019-01-14 U Новогодний экспресс / Любовь дальнего следования [01-02 из 02] (2018) HDTVRip 720p от ExKinoRay 5.09 GB ↑ 36 ↓ 14
2019-01-13 U Новогодний экспресс / Любовь дальнего следования [01-02 из 02] (2018) WEB-DLRip-AVC от Files-x 2.18 GB ↑ 209 ↓ 40
2019-01-13 U Новогодний экспресс [01-02 из 02] (2018) SATRip 2.24 GB ↑ 64 ↓ 19
2019-01-05 U Новогодний Голубой огонек [01-03 из 03] (2019) HDTVRip от Files-x 4.89 GB ↑ 69 ↓ 16
2019-01-03 U Новогодний Голубой огонек [01-03 из 03] (2019) HDTVRip от Files-x 4.89 GB ↑ 79 ↓ 52

Отзывы
Зарегистрируйтесь чтобы добавить комментарий.
Обратная связь
Copyleft ©