↑↓Torrent.by
Поиск
Логин: Регистрация
Пароль: Восстановить пароль
Загрузка...

Жизнь после карьеры в Порно 3 / After Porn Ends 3 (2018) WEBRip 1080p | Sub

Скачать zhizn-posle-karery-v-porno-3-after-porn-ends-2018-webrip-1080p-sub.torrent
U Магнитная ссылка Размер: 3.16 GB Раздают: 94 Качают: 28 Добавлен: 2019-01-01 15:24:49
Жизнь после карьеры в Порно 3 / After Porn Ends 3 (2018) WEBRip 1080p | Sub

Название: Жизнь после карьеры в Порно 3
Оригинальное название: After Porn Ends 3
Год выхода: 2018
Жанр: Документальный
Режиссер: Бриттани Эндрюс
В ролях: Бриттани Эндрюс, Бак Энджел, Джоанна Энджел, Кристи Каньон, Мануэль Феррара, Джентил, Обри Кейт, Кэйден Кросс, Эбигейл Мак, Кира Нуар, Тера Патрик, Дженна Прэсли, Прия Рай, Роми Рэйн, Хершел Сэвадж, Николетт Шиа, Майкл Вегас.

О фильме:
Фильм знакомит с одними из самых старых звезд индустрии для взрослых и рассказывает об их жизни по завершении карьеры. Кто-то принимает её с гордостью и без сожаления, как путь к обретению гармонии и счастья в жизни. Других карьера в порно привела к отчаянию и страданиям, и они всеми силами пытаются избавиться от последствий работы в индустрии.

Страна: США
Студия: WeBros Entertainment, Karbonshark TV
Продолжительность: 01:26:56
Перевод: Субтитры

Файл
Кодек: AVC
Качество: WEBRip 1080p | After.Porn.Ends.3.2018.1080p.NF.WEBRip.DDP5.1.x264-iKA
Видео: MPEG-4 AVC, 4870 Kбит/с, 1920x1080, 23.976 кадр/с
Звук: Аудио #1: Английский ( E-AC3, 6ch, 448 Кбит/с, 48.0 KHz)
Tрейлер


[+] MediaInfo
Источник: After.Porn.Ends.3.2018.1080p.NF.WEBRip.DDP5.1.x264-iKA
General
Unique ID                      : 197046843491876608315178759364066971116 (0x943DD7753F43114DB07F012223888DEC)
Complete name                  : After.Porn.Ends.3.2018.WEBRip.1080p.mkv
Format                         : Matroska
Format version                 : Version 4 / Version 2
File size                      : 3.16 GiB
Duration                       : 1 h 26 min
Overall bit rate mode          : Variable
Overall bit rate               : 5 199 kb/s
Encoded date                   : UTC 2018-12-31 10:26:06
Writing application            : mkvmerge v7.1.0 ('Good Love') 64bit built on Jul 27 2014 13:06:55
Writing library                : libebml v1.3.0 + libmatroska v1.4.1

Video
ID                             : 1
Format                         : AVC
Format/Info                    : Advanced Video Codec
Format profile                 : Main@L4
Format settings, CABAC         : Yes
Format settings, RefFrames     : 3 frames
Codec ID                       : V_MPEG4/ISO/AVC
Duration                       : 1 h 26 min
Bit rate mode                  : Variable
Bit rate                       : 4 870 kb/s
Maximum bit rate               : 7 305 kb/s
Width                          : 1 920 pixels
Height                         : 1 080 pixels
Display aspect ratio           : 16:9
Frame rate mode                : Constant
Frame rate                     : 23.976 (24000/1001) FPS
Color space                    : YUV
Chroma subsampling             : 4:2:0
Bit depth                      : 8 bits
Scan type                      : Progressive
Bits/(Pixel*Frame)             : 0.098
Stream size                    : 2.88 GiB (91%)
Writing library                : x264 core 148 r2715 7e75228
Encoding settings              : cabac=1 / ref=3 / deblock=1:0:0 / analyse=0x1:0x111 / me=umh / subme=10 / psy=1 / psy_rd=1.00:0.00 / mixed_ref=1 / me_range=24 / chroma_me=1 / trellis=2 / 8x8dct=0 / cqm=0 / deadzone=21,11 / fast_pskip=1 / chroma_qp_offset=-2 / threads=8 / lookahead_threads=1 / sliced_threads=0 / nr=0 / decimate=1 / interlaced=0 / bluray_compat=0 / stitchable=1 / constrained_intra=0 / bframes=2 / b_pyramid=0 / b_adapt=2 / b_bias=0 / direct=3 / weightb=1 / open_gop=0 / weightp=2 / keyint=48 / keyint_min=25 / scenecut=0 / intra_refresh=0 / rc_lookahead=48 / rc=2pass / mbtree=1 / bitrate=4870 / ratetol=1.0 / qcomp=0.50 / qpmin=6 / qpmax=51 / qpstep=4 / cplxblur=20.0 / qblur=0.5 / vbv_maxrate=7305 / vbv_bufsize=9740 / nal_hrd=vbr / filler=0 / ip_ratio=1.40 / aq=1:1.00
Language                       : English
Default                        : Yes
Forced                         : No

Audio
ID                             : 2
Format                         : E-AC-3
Format/Info                    : Enhanced Audio Coding 3
Format settings, Endianness    : Big
Codec ID                       : A_EAC3
Duration                       : 1 h 26 min
Bit rate mode                  : Constant
Bit rate                       : 448 kb/s
Channel(s)                     : 6 channels
Channel positions              : Front: L C R, Side: L R, LFE
Sampling rate                  : 48.0 kHz
Frame rate                     : 187.500 FPS (256 SPF)
Compression mode               : Lossy
Stream size                    : 279 MiB (9%)
Language                       : English
Service kind                   : Complete Main
Default                        : Yes
Forced                         : No

Text #1
ID                             : 3
Format                         : UTF-8
Codec ID                       : S_TEXT/UTF8
Codec ID/Info                  : UTF-8 Plain Text
Duration                       : 1 h 26 min
Bit rate                       : 173 b/s
Count of elements              : 1464
Stream size                    : 110 KiB (0%)
Language                       : Russian
Default                        : Yes
Forced                         : No

Text #2
ID                             : 4
Format                         : UTF-8
Codec ID                       : S_TEXT/UTF8
Codec ID/Info                  : UTF-8 Plain Text
Duration                       : 1 h 23 min
Bit rate                       : 103 b/s
Count of elements              : 2973
Stream size                    : 63.6 KiB (0%)
Language                       : English
Default                        : No
Forced                         : No

Text #3
ID                             : 5
Format                         : UTF-8
Codec ID                       : S_TEXT/UTF8
Codec ID/Info                  : UTF-8 Plain Text
Duration                       : 1 h 26 min
Bit rate                       : 96 b/s
Count of elements              : 1448
Stream size                    : 61.5 KiB (0%)
Title                          : Brazilian
Language                       : Portuguese
Default                        : No
Forced                         : No

Text #4
ID                             : 6
Format                         : UTF-8
Codec ID                       : S_TEXT/UTF8
Codec ID/Info                  : UTF-8 Plain Text
Duration                       : 1 h 26 min
Bit rate                       : 84 b/s
Count of elements              : 1219
Stream size                    : 53.4 KiB (0%)
Language                       : Danish
Default                        : No
Forced                         : No

Text #5
ID                             : 7
Format                         : UTF-8
Codec ID                       : S_TEXT/UTF8
Codec ID/Info                  : UTF-8 Plain Text
Duration                       : 1 h 26 min
Bit rate                       : 87 b/s
Count of elements              : 1212
Stream size                    : 55.4 KiB (0%)
Language                       : Dutch
Default                        : No
Forced                         : No

Text #6
ID                             : 8
Format                         : UTF-8
Codec ID                       : S_TEXT/UTF8
Codec ID/Info                  : UTF-8 Plain Text
Duration                       : 1 h 26 min
Bit rate                       : 91 b/s
Count of elements              : 1431
Stream size                    : 58.1 KiB (0%)
Title                          : European
Language                       : Spanish
Default                        : No
Forced                         : No

Text #7
ID                             : 9
Format                         : UTF-8
Codec ID                       : S_TEXT/UTF8
Codec ID/Info                  : UTF-8 Plain Text
Duration                       : 1 h 26 min
Bit rate                       : 80 b/s
Count of elements              : 1225
Stream size                    : 50.9 KiB (0%)
Language                       : Finnish
Default                        : No
Forced                         : No

Text #8
ID                             : 10
Format                         : UTF-8
Codec ID                       : S_TEXT/UTF8
Codec ID/Info                  : UTF-8 Plain Text
Duration                       : 1 h 26 min
Bit rate                       : 100 b/s
Count of elements              : 1449
Stream size                    : 63.9 KiB (0%)
Language                       : French
Default                        : No
Forced                         : No

Text #9
ID                             : 11
Format                         : UTF-8
Codec ID                       : S_TEXT/UTF8
Codec ID/Info                  : UTF-8 Plain Text
Duration                       : 1 h 26 min
Bit rate                       : 101 b/s
Count of elements              : 1443
Stream size                    : 64.6 KiB (0%)
Language                       : German
Default                        : No
Forced                         : No

Text #10
ID                             : 12
Format                         : UTF-8
Codec ID                       : S_TEXT/UTF8
Codec ID/Info                  : UTF-8 Plain Text
Duration                       : 1 h 23 min
Bit rate                       : 170 b/s
Count of elements              : 1475
Stream size                    : 105 KiB (0%)
Language                       : Greek
Default                        : No
Forced                         : No

Text #11
ID                             : 13
Format                         : UTF-8
Codec ID                       : S_TEXT/UTF8
Codec ID/Info                  : UTF-8 Plain Text
Duration                       : 1 h 26 min
Bit rate                       : 93 b/s
Count of elements              : 1450
Stream size                    : 59.2 KiB (0%)
Language                       : Indonesian
Default                        : No
Forced                         : No

Text #12
ID                             : 14
Format                         : UTF-8
Codec ID                       : S_TEXT/UTF8
Codec ID/Info                  : UTF-8 Plain Text
Duration                       : 1 h 26 min
Bit rate                       : 102 b/s
Count of elements              : 1437
Stream size                    : 65.1 KiB (0%)
Language                       : Italian
Default                        : No
Forced                         : No

Text #13
ID                             : 15
Format                         : UTF-8
Codec ID                       : S_TEXT/UTF8
Codec ID/Info                  : UTF-8 Plain Text
Duration                       : 1 h 26 min
Bit rate                       : 88 b/s
Count of elements              : 1219
Stream size                    : 56.4 KiB (0%)
Language                       : Norwegian Bokmal
Default                        : No
Forced                         : No

Text #14
ID                             : 16
Format                         : UTF-8
Codec ID                       : S_TEXT/UTF8
Codec ID/Info                  : UTF-8 Plain Text
Duration                       : 1 h 26 min
Bit rate                       : 86 b/s
Count of elements              : 1402
Stream size                    : 54.5 KiB (0%)
Language                       : Polish
Default                        : No
Forced                         : No

Text #15
ID                             : 17
Format                         : UTF-8
Codec ID                       : S_TEXT/UTF8
Codec ID/Info                  : UTF-8 Plain Text
Duration                       : 1 h 26 min
Bit rate                       : 97 b/s
Count of elements              : 1438
Stream size                    : 61.7 KiB (0%)
Language                       : Portuguese
Default                        : No
Forced                         : No

Text #16
ID                             : 18
Format                         : UTF-8
Codec ID                       : S_TEXT/UTF8
Codec ID/Info                  : UTF-8 Plain Text
Duration                       : 1 h 26 min
Bit rate                       : 95 b/s
Count of elements              : 1440
Stream size                    : 60.6 KiB (0%)
Language                       : Spanish
Default                        : No
Forced                         : No

Text #17
ID                             : 19
Format                         : UTF-8
Codec ID                       : S_TEXT/UTF8
Codec ID/Info                  : UTF-8 Plain Text
Duration                       : 1 h 26 min
Bit rate                       : 83 b/s
Count of elements              : 1192
Stream size                    : 52.8 KiB (0%)
Language                       : Swedish
Default                        : No
Forced                         : No

Text #18
ID                             : 20
Format                         : UTF-8
Codec ID                       : S_TEXT/UTF8
Codec ID/Info                  : UTF-8 Plain Text
Duration                       : 1 h 26 min
Bit rate                       : 94 b/s
Count of elements              : 1440
Stream size                    : 60.0 KiB (0%)
Language                       : Turkish
Default                        : No
Forced                         : No



Скриншоты:
[+] Всего файлов в раздаче - 1:
After.Porn.Ends.3.2018.WEBRip.1080p.mkv3.16 GB

Текущая раздача:
ДатаКомментарии    РазмерПиры
2019-01-01 U Жизнь после карьеры в Порно 3 / After Porn Ends 3 (2018) WEBRip 1080p | Sub 3.16 GB ↑ 94 ↓ 28

Показать еще раздачи по запросу жизнь:
2019-01-19 U Маша и медведь: Вся жизнь - театр! [76] (2019) WEB-DLRip-AVC 162.12 MB ↑ 164 ↓ 19
2019-01-19 U Маша и медведь: Вся жизнь - театр! [76] (2019) WEB-DLRip 105.66 MB ↑ 188 ↓ 35
2019-01-18 U Дикая жизнь / Wildlife (2018) WEBRip | L2 1.43 GB ↑ 82 ↓ 16
2019-01-18 U Дикая жизнь / Wildlife (2018) WEBRip 720p | L2 2.28 GB ↑ 133 ↓ 30
2019-01-16 U Сама жизнь / Life Itself (2018) BDRip от MegaPeer | HDRezka Studio 1.46 GB ↑ 98 ↓ 26
2019-01-16 U Сама жизнь / Life Itself (2018) BDRip-AVC от OlLanDGroup | HDRezka Studio 1.99 GB ↑ 135 ↓ 45
2019-01-12 U Верни мою жизнь [01-04 из 04] (2018) WEBRip от Files-x 2.74 GB ↑ 224 ↓ 121

Отзывы
Зарегистрируйтесь чтобы добавить комментарий.
Обратная связь
Copyleft ©