↑↓Torrent.by
Поиск
Логин: Регистрация
Пароль: Восстановить пароль
Загрузка...

КВН-2018. Высшая лига. Финал [01.01] (2019) HDTVRip от GeneralFilm

Скачать kvn-2018-vysshaya-liga-final-01-2019-hdtvrip-ot-generalfilm.torrent
U Магнитная ссылка Размер: 2.16 GB Раздают: 2383 Качают: 502 Добавлен: 2019-01-02 12:47:16
КВН-2018. Высшая лига. Финал  [01.01] (2019) HDTVRip от GeneralFilm

Оригинальное название: КВН-2018. Высшая лига
Год выпуска: 2018
Жанр:  Юмор
Выпущено: Россия, АМИК, Первый канал
Ведущий: Александр Масляков

О фильме: Что такое КВН - знают, без сомнения, все. В КВН играют во всем мире, это прежде всего молодежная игра. Постоянные конкурсные задания - "Визитная карточка", "Разминка", "Конкурс капитанов", "Музыкальный конкурс", "Домашнее задание". Игру команд оценивает профессиональное жюри - люди, у которых с чувством юмора все в порядке, многие из них раньше сами играли в КВН. Среди членов жюри были Константин Эрнст, Леонид Парфенов, Юлий Гусман, Леонид Ярмольник, Валдис Пельш, Сергей Шолохов, Геннадий Хазанов и другие. Кроме самих игр проводятся ежегодные встречи: фестиваль команд КВН (с 1990 г., семь раз фестиваль проходил в г.Сочи), музыкальный фестиваль КВН, летний кубок КВН, международные товарищеские игры в КВН. Сборная КВН играет со сборными других стран. Уже состоялись игры между сборной КВН и сборными Америки, Австралии, Израиля... Игра в КВН для многих становится профессией, а многие благодаря игре связывают жизнь с искусством. Из КВН "вышли": Леонид Якубович, Михаил Марфин, Татьяна Лазарева, Олег Филимонов, Юлий Гусман и многие другие.

Качество: HDTVRip
Видео: XviD, 1795 Кбит/с, 720x400
Аудио: Русский (AC3, 2 ch, 192 Кбит/с)
Продолжительность: 02:34:40

Релиз:

Огромная благодарность Media-Art-Club за созданный постер к раздаче
[+] MediaInfo

Общее
Полное имя                               : D:KVN-2018. Vysshaja liga.Final.HDTVRip.GeneralFilm.avi
Формат                                   : AVI
Формат/Информация                        : Audio Video Interleave
Размер файла                             : 2,16 Гбайт
Продолжительность                        : 2 ч. 34 м.
Общий поток                              : 1998 Кбит/сек

Видео
Идентификатор                            : 0
Формат                                   : MPEG-4 Visual
Профиль формата                          : Advanced Simple@L5
Параметр BVOP формата                    : 1
Параметр QPel формата                    : Нет
Параметр GMC формата                     : Без точки перехода
Параметр матрицы формата                 : Выборочная
Идентификатор кодека                     : XVID
Идентификатор кодека/Подсказка           : XviD
Продолжительность                        : 2 ч. 34 м.
Битрейт                                  : 1795 Кбит/сек
Ширина                                   : 720 пикселей
Высота                                   : 400 пикселей
Соотношение сторон                       : 16:9
Частота кадров                           : 25,000 кадров/сек
Цветовое пространство                    : YUV
Субдискретизация насыщенности            : 4:2:0
Битовая глубина                          : 8 бит
Тип развёртки                            : Прогрессивная
Метод сжатия                             : С потерями
Бит/(Пиксели*Кадры)                      : 0.249
Размер потока                            : 1,94 Гбайт (90%)
Библиотека кодирования                   : XviD 1.2.1 (UTC 2008-12-04)

Аудио
Идентификатор                            : 1
Формат                                   : AC-3
Формат/Информация                        : Audio Coding 3
Расширение режима                        : CM (complete main)
Параметр Endianness формата              : Big
Идентификатор кодека                     : 2000
Продолжительность                        : 2 ч. 34 м.
Вид битрейта                             : Постоянный
Битрейт                                  : 192 Кбит/сек
Каналы                                   : 2 канала
Расположение каналов                     : Front: L R
Частота                                  : 48,0 КГц
Частота кадров                           : 31,250 кадров/сек (1536 spf)
Битовая глубина                          : 16 бит
Метод сжатия                             : С потерями
Размер потока                            : 212 Мбайт (10%)
Выравнивание                             : Соединение по промежуткам
Продолжительность промежутка             : 32  мс. (0,80 видеокадр)




[+] Команды

— «Вятка», сборная Кировской области
— «Борцы», Сургут
— «Так-то», СФУ, Красноярск
— «Раисы», Иркутск
— «Плюшки имени Ярослава Мудрого», Тверь
— «Русская дорога», АГПУ, Армавир



[+] Жюри

Константин Эрнст, Пелагея, Татьяна Навка, Юлий Гусман, Дмитрий Нагиев, Семен Слепаков.



Скриншоты:
[+] Всего файлов в раздаче - 1:
KVN-2018. Vysshaja liga.Final.HDTVRip.GeneralFilm.avi2.16 GB

Текущая раздача:
ДатаКомментарии    РазмерПиры
2019-01-02 U КВН-2018. Высшая лига. Финал [01.01] (2019) HDTVRip от GeneralFilm 2.16 GB ↑ 2383 ↓ 502

Показать еще раздачи по запросу высшая:
2019-01-02 U КВН-2018. Высшая лига. Финал [01.01] (2019) HDTV 1080i от GeneralFilm 11.00 GB ↑ 636 ↓ 169
2018-10-21 U КВН-2018. Высшая лига. 1/2 финала. Игра вторая [21.10] (2018) HDTV 1080i от GeneralFilm 10.72 GB ↑ 178 ↓ 133
2018-10-21 U КВН-2018. Высшая лига. 1/2 финала. Игра вторая [21.10] (2018) HDTVRip от GeneralFilm 1К1.66 GB ↑ 558 ↓ 264
2018-10-15 U КВН-2018. Высшая лига. 1/2 финала. Игра первая [14.10] (2018) HDTV 1080i от GeneralFilm 7.24 GB ↑ 364 ↓ 63
2018-10-15 U КВН-2018. Высшая лига. 1/2 финала. Игра первая [14.10] (2018) HDTVRip от GeneralFilm 1.53 GB ↑ 1007 ↓ 253
2018-08-10 U Высшая сила / Higher Power (2018) HDRip 720p | GreenРай Studio 3.83 GB ↑ 71 ↓ 29
2018-08-10 U Высшая сила / Higher Power (2018) HDRip 1080p | GreenРай Studio 6.71 GB ↑ 68 ↓ 29

Отзывы
Зарегистрируйтесь чтобы добавить комментарий.
Обратная связь
Copyleft ©