↑↓Torrent.by
Поиск
Логин: Регистрация
Пароль: Восстановить пароль
Загрузка...

Однажды в Америке или Чисто русская сказка (2018) WEBRip от GeneralFilm

Скачать odnazhdy-v-amerike-ili-chisto-russkaya-skazka-2018-webrip-ot-generalfilm.torrent
U Магнитная ссылка Размер: 1.45 GB Раздают: 1056 Качают: 227 Добавлен: 2019-01-02 12:47:18
Однажды в Америке или Чисто русская сказка (2018) WEBRip от GeneralFilm

Оригинальное название: Однажды в Америке или Чисто русская сказка
Год выпуска: 2018
Жанр:  Комедия, приключение, фантастика
Выпущено: Россия, ООО Кинокомпания «Задорное кино»
Режиссер: Дмитрий Панченко
В ролях: Михаил Задорнов, Эммануил Виторган, Юрий Гальцев, Михаил Башкатов, Мария Орлова

О фильме: В маленькой стране Аннунакия на престол восходит молодой король — Макбук-102-й. Согласно завещанию отца, Макбук должен взять в гарем юбилейную русскую жену. И так совпало, что как раз в это время по стране гастролирует русский народный ансамбль! В то время, пока молодой король ищет русскую красавицу, президент государства Самая Шибкодемократическая Автономия (сокращенно — С.Ш.А.) планирует во что бы то ни стало сделать Аннунакию демократической страной…

Качество: WEBRip
Видео: XviD build 73, 720x304 (2.35:1), 25.000 fps, 1990 Kbps (0.364 bit/pixel)
Аудио: 48.0 kHz, AC3, 2/0 ch, 192 kbps
Продолжительность: 01:35:00
Перевод: Не требуется
Cубтитры: нет

Релиз:
[+] MediaInfo

General
Complete name               : D:RazdachiV.Amerike.2018.XviD.WEBRip.GeneralFilm.avi
Format                      : AVI
Format/Info                 : Audio Video Interleave
File size                   : 1.45 GiB
Duration                    : 1 h 35 min
Overall bit rate            : 2 191 kb/s
Writing application         : VirtualDubMod 1.5.10.3 | www.virtualdub-fr.org || (build 2550/release)
Writing library             : VirtualDubMod build 2550/release

Video
ID                          : 0
Format                      : MPEG-4 Visual
Format profile              : Advanced Simple@L5
Format settings, BVOP       : 1
Format settings, QPel       : No
Format settings, GMC        : No warppoints
Format settings, Matrix     : Custom
Codec ID                    : XVID
Codec ID/Hint               : XviD
Duration                    : 1 h 35 min
Bit rate                    : 1 990 kb/s
Width                       : 720 pixels
Height                      : 304 pixels
Display aspect ratio        : 2.35:1
Frame rate                  : 25.000 FPS
Color space                 : YUV
Chroma subsampling          : 4:2:0
Bit depth                   : 8 bits
Scan type                   : Progressive
Compression mode            : Lossy
Bits/(Pixel*Frame)          : 0.364
Stream size                 : 1.32 GiB (91%)
Writing library             : XviD 73

Audio
ID                          : 1
Format                      : AC-3
Format/Info                 : Audio Coding 3
Format settings, Endianness : Big
Codec ID                    : 2000
Duration                    : 1 h 35 min
Bit rate mode               : Constant
Bit rate                    : 192 kb/s
Channel(s)                  : 2 channels
Channel positions           : Front: L R
Sampling rate               : 48.0 kHz
Frame rate                  : 31.250 FPS (1536 SPF)
Bit depth                   : 16 bits
Compression mode            : Lossy
Stream size                 : 130 MiB (9%)
Alignment                   : Split accross interleaves
Interleave, duration        : 40  ms (1.00 video frame)
Interleave, preload duratio : 500  ms
Service kind                : Complete Main



Скриншоты:
[+] Всего файлов в раздаче - 1:
V.Amerike.2018.XviD.WEBRip.GeneralFilm.avi1.45 GB

Текущая раздача:
ДатаКомментарии    РазмерПиры
2019-01-02 U Однажды в Америке или Чисто русская сказка (2018) WEBRip от GeneralFilm 1.45 GB ↑ 1056 ↓ 227

Показать еще раздачи по запросу однажды:
2019-01-02 U Однажды в России [08х01-15] (2018) WEBRip от Files-x 9.29 GB ↑ 102 ↓ 280
2019-01-02 U Однажды в Америке или чисто русская сказка (2018) WEBRip-AVC от Files-x 2К1.37 GB ↑ 164 ↓ 70
2019-01-02 U Однажды в Америке или Чисто русская сказка (2018) WEBRip 720p от ExKinoRay 2.79 GB ↑ 136 ↓ 51
2019-01-02 U Однажды в Америке или чисто русская сказка (2018) WEBRip от Files-x 1.37 GB ↑ 463 ↓ 100
2019-01-02 U Однажды в Америке, или Чисто русская сказка (2018) WEBRip 1080p от Files-x 4.12 GB ↑ 764 ↓ 302
2018-12-13 U Однажды в России [08х01-13] (2018) WEBRip от Files-x 8.03 GB ↑ 99 ↓ 87
2018-10-12 U Однажды в России [08х01-07] (2018) WEBRip от Files-x 1К4.54 GB ↑ 130 ↓ 214

Отзывы
Зарегистрируйтесь чтобы добавить комментарий.
Обратная связь
Copyleft ©