↑↓Torrent.by
Поиск
Логин: Регистрация
Пароль: Восстановить пароль
Загрузка...

КВН-2018. Высшая лига. Финал [01.01] (2019) HDTV 1080i от GeneralFilm

Скачать kvn-2018-vysshaya-liga-final-01-2019-hdtv-1080i-ot-generalfilm.torrent
U Магнитная ссылка Размер: 11.00 GB Раздают: 636 Качают: 169 Добавлен: 2019-01-02 12:48:24
КВН-2018. Высшая лига. Финал  [01.01] (2019) HDTV 1080i от GeneralFilm

Оригинальное название: КВН-2018. Высшая лига
Год выпуска: 2018
Жанр:  Юмор
Выпущено: Россия, АМИК, Первый канал
Ведущий: Александр Масляков

О фильме: Что такое КВН - знают, без сомнения, все. В КВН играют во всем мире, это прежде всего молодежная игра. Постоянные конкурсные задания - "Визитная карточка", "Разминка", "Конкурс капитанов", "Музыкальный конкурс", "Домашнее задание". Игру команд оценивает профессиональное жюри - люди, у которых с чувством юмора все в порядке, многие из них раньше сами играли в КВН. Среди членов жюри были Константин Эрнст, Леонид Парфенов, Юлий Гусман, Леонид Ярмольник, Валдис Пельш, Сергей Шолохов, Геннадий Хазанов и другие. Кроме самих игр проводятся ежегодные встречи: фестиваль команд КВН (с 1990 г., семь раз фестиваль проходил в г.Сочи), музыкальный фестиваль КВН, летний кубок КВН, международные товарищеские игры в КВН. Сборная КВН играет со сборными других стран. Уже состоялись игры между сборной КВН и сборными Америки, Австралии, Израиля... Игра в КВН для многих становится профессией, а многие благодаря игре связывают жизнь с искусством. Из КВН "вышли": Леонид Якубович, Михаил Марфин, Татьяна Лазарева, Олег Филимонов, Юлий Гусман и многие другие.

Качество: HDTV (1080i)
Видео: MPEG-TS AVC, 9093 Кбит/с, 1920x1080
Аудио: Русский (AC3, 2 ch, 384 Кбит/с), (MP2, 2 ch, 192 Кбит/с)
Продолжительность: 02:34:40

Релиз:

Огромная благодарность Media-Art-Club за созданный постер к раздаче
[+] MediaInfo

Общее
Идентификатор                            : 1 (0x1)
Полное имя                               : D:ЗаписьKVN-2018. Vysshaja liga.Final.HDTV(1080i).GeneralFilm.ts
Формат                                   : MPEG-TS
Размер файла                             : 11,0 Гбайт
Продолжительность                        : 2 ч. 34 м.
Режим общего битрейта                    : Переменный
Общий поток                              : 10,2 Мбит/сек

Видео
Идентификатор                            : 1904 (0x770)
Идентификатор меню                       : 80 (0x50)
Формат                                   : AVC
Формат/Информация                        : Advanced Video Codec
Профиль формата                          : High@L4
Параметр CABAC формата                   : Да
Параметр ReFrames формата                : 3 кадра
Идентификатор кодека                     : 27
Продолжительность                        : 2 ч. 34 м.
Битрейт                                  : 9093 Кбит/сек
Ширина                                   : 1920 пикселей
Высота                                   : 1080 пикселей
Соотношение сторон                       : 16:9
Частота кадров                           : 25,000 кадров/сек
Стандарт вещания                         : Component
Цветовое пространство                    : YUV
Субдискретизация насыщенности            : 4:2:0
Битовая глубина                          : 8 бит
Тип развёртки                            : Чересстрочная
Метод сохранения типа развёртки          : Раздельные поля
Порядок развёртки                        : Верхнее поле первое
Бит/(Пиксели*Кадры)                      : 0.175
Размер потока                            : 9,82 Гбайт (89%)
Цветовой диапазон                        : Limited
Основные цвета                           : BT.709
Характеристики трансфера                 : BT.709
Коэффициенты матрицы                     : BT.709

Аудио #1
Идентификатор                            : 2904 (0xB58)
Идентификатор меню                       : 80 (0x50)
Формат                                   : AC-3
Формат/Информация                        : Audio Coding 3
Расширение режима                        : CM (complete main)
Параметр Endianness формата              : Big
Идентификатор кодека                     : 6
Продолжительность                        : 2 ч. 34 м.
Вид битрейта                             : Постоянный
Битрейт                                  : 384 Кбит/сек
Каналы                                   : 6 каналов
Расположение каналов                     : Front: L C R, Side: L R, LFE
Частота                                  : 48,0 КГц
Частота кадров                           : 31,250 кадров/сек (1536 spf)
Битовая глубина                          : 16 бит
Метод сжатия                             : С потерями
Задержка видео                           : -120 мс.
Размер потока                            : 425 Мбайт (4%)
Язык                                     : Russian

Аудио #2
Идентификатор                            : 2905 (0xB59)
Идентификатор меню                       : 80 (0x50)
Формат                                   : MPEG Audio
Версия формата                           : Version 1
Профиль формата                          : Layer 2
Идентификатор кодека                     : 3
Продолжительность                        : 2 ч. 34 м.
Вид битрейта                             : Постоянный
Битрейт                                  : 192 Кбит/сек
Каналы                                   : 2 канала
Частота                                  : 48,0 КГц
Метод сжатия                             : С потерями
Задержка видео                           : -120 мс.
Размер потока                            : 212 Мбайт (2%)
Язык                                     : Russian




[+] Команды

— «Вятка», сборная Кировской области
— «Борцы», Сургут
— «Так-то», СФУ, Красноярск
— «Раисы», Иркутск
— «Плюшки имени Ярослава Мудрого», Тверь
— «Русская дорога», АГПУ, Армавир



[+] Жюри

Константин Эрнст, Пелагея, Татьяна Навка, Юлий Гусман, Дмитрий Нагиев, Семен Слепаков.



Скриншоты:
[+] Всего файлов в раздаче - 1:
KVN-2018. Vysshaja liga.Final.HDTV(1080i).GeneralFilm.ts11.00 GB

Текущая раздача:
ДатаКомментарии    РазмерПиры
2019-01-02 U КВН-2018. Высшая лига. Финал [01.01] (2019) HDTV 1080i от GeneralFilm 11.00 GB ↑ 636 ↓ 169

Показать еще раздачи по запросу высшая:
2019-01-02 U КВН-2018. Высшая лига. Финал [01.01] (2019) HDTVRip от GeneralFilm 2.16 GB ↑ 2383 ↓ 502
2018-10-21 U КВН-2018. Высшая лига. 1/2 финала. Игра вторая [21.10] (2018) HDTV 1080i от GeneralFilm 10.72 GB ↑ 178 ↓ 133
2018-10-21 U КВН-2018. Высшая лига. 1/2 финала. Игра вторая [21.10] (2018) HDTVRip от GeneralFilm 1К1.66 GB ↑ 558 ↓ 264
2018-10-15 U КВН-2018. Высшая лига. 1/2 финала. Игра первая [14.10] (2018) HDTV 1080i от GeneralFilm 7.24 GB ↑ 364 ↓ 63
2018-10-15 U КВН-2018. Высшая лига. 1/2 финала. Игра первая [14.10] (2018) HDTVRip от GeneralFilm 1.53 GB ↑ 1007 ↓ 253
2018-08-10 U Высшая сила / Higher Power (2018) HDRip 720p | GreenРай Studio 3.83 GB ↑ 71 ↓ 29
2018-08-10 U Высшая сила / Higher Power (2018) HDRip 1080p | GreenРай Studio 6.71 GB ↑ 68 ↓ 29

Отзывы
Зарегистрируйтесь чтобы добавить комментарий.
Обратная связь
Copyleft ©