↑↓Torrent.by
Поиск
Логин: Регистрация
Пароль: Восстановить пароль
Загрузка...

Проводник (2018) WEB-DLRip-AVC от ExKinoRay | iTunes

Скачать provodnik-2018-web-dlrip-avc-ot-exkinoray-itunes.torrent
U Магнитная ссылка Размер: 1.37 GB Раздают: 192 Качают: 47 Добавлен: 2019-01-02 12:49:21
Проводник (2018) WEB-DLRip-AVC от ExKinoRay | iTunes

Название: Проводник
Год выхода: 2018
Жанр: Ужасы, триллер
Страна: Россия
Перевод: не требуется
Продолжительность: 01:26:18
Режиссер: Илья Максимов
В ролях: Александра Бортич, Евгений Цыганов, Александр Робак, Вячеслав Разбегаев, Владимир Яглыч, Константин Мурзенко, Юрий Скулябин, Марта Тимофеева, Екатерина Рокотова, Василий Бочкарев и др.

О фильме: Главная героиня, девушка Катя, обладает мистическим даром: она видит призраков. Когда пропадает её сестра-близнец, девушка в одиночку бросается на поиски. В полиции настаивают, что сестры вообще не существует, что она — плод Катиного больного воображения. Однако в процессе поисков сестры Катя понимает, что в городе орудует серийный маньяк, и сестра — одна из его жертв. Еще есть надежда спасти ее, но в мрачном, полном тайн городе нельзя доверять никому, даже самой себе…

Файл
Качество: WEB-DLRip-AVC
Видео: MPEG-4 AVC, 720x302, 1886 kbps, 25,000 fps
Звук: русский, AC3, 5.1 ch, 48 kHz, 384 kbps | iTunes
Субтитры: нет

Релиз:

Автор релиза:


[+] MI
General
Unique ID                                : 224931406836376037997503746081525907103 (0xA93836935A6FCED29CB5AA7213ECBE9F)
Complete name                            : D:Provodnik.2018.AVC.ExKinoRay.mkv
Format                                   : Matroska
Format version                           : Version 2
File size                                : 1.37 GiB
Duration                                 : 1 h 26 min
Overall bit rate                         : 2 268 kb/s
Movie name                               : Проводник (2018) from ExKinoRay
Encoded date                             : UTC 2019-01-01 19:26:59
Writing application                      : mkvmerge v5.6.0 ('Kenya Kane') built on May 27 2012 16:44:04
Writing library                          : libebml v1.2.3 + libmatroska v1.3.0
Attachments                              : poster.png

Video
ID                                       : 1
Format                                   : AVC
Format/Info                              : Advanced Video Codec
Format profile                           : High@L4.1
Format settings, CABAC                   : Yes
Format settings, ReFrames                : 12 frames
Codec ID                                 : V_MPEG4/ISO/AVC
Duration                                 : 1 h 26 min
Bit rate                                 : 1 886 kb/s
Width                                    : 720 pixels
Height                                   : 302 pixels
Display aspect ratio                     : 2.40:1
Frame rate mode                          : Constant
Frame rate                               : 25.000 FPS
Color space                              : YUV
Chroma subsampling                       : 4:2:0
Bit depth                                : 8 bits
Scan type                                : Progressive
Bits/(Pixel*Frame)                       : 0.347
Stream size                              : 1.11 GiB (81%)
Title                                    : Enigma
Writing library                          : x264 core 152 r2851 ba24899
Encoding settings                        : cabac=1 / ref=12 / deblock=1:-2:-2 / analyse=0x3:0x113 / me=umh / subme=10 / psy=1 / psy_rd=1.05:0.10 / mixed_ref=1 / me_range=32 / chroma_me=1 / trellis=2 / 8x8dct=1 / cqm=0 / deadzone=21,11 / fast_pskip=0 / chroma_qp_offset=-3 / threads=9 / lookahead_threads=1 / sliced_threads=0 / nr=0 / decimate=0 / interlaced=0 / bluray_compat=0 / constrained_intra=0 / bframes=9 / b_pyramid=2 / b_adapt=2 / b_bias=0 / direct=3 / weightb=1 / open_gop=0 / weightp=2 / keyint=250 / keyint_min=25 / scenecut=40 / intra_refresh=0 / rc=2pass / mbtree=0 / bitrate=1886 / ratetol=1.0 / qcomp=0.60 / qpmin=0 / qpmax=51 / qpstep=4 / cplxblur=20.0 / qblur=0.5 / ip_ratio=1.40 / pb_ratio=1.30 / aq=1:1.00
Default                                  : Yes
Forced                                   : No
Color range                              : Limited
Color primaries                          : BT.709
Transfer characteristics                 : BT.709
Matrix coefficients                      : BT.709

Audio
ID                                       : 2
Format                                   : AC-3
Format/Info                              : Audio Coding 3
Mode extension                           : CM (complete main)
Format settings, Endianness              : Big
Codec ID                                 : A_AC3
Duration                                 : 1 h 26 min
Bit rate mode                            : Constant
Bit rate                                 : 384 kb/s
Channel(s)                               : 6 channels
Channel positions                        : Front: L C R, Side: L R, LFE
Sampling rate                            : 48.0 kHz
Frame rate                               : 31.250 FPS (1536 spf)
Compression mode                         : Lossy
Stream size                              : 237 MiB (17%)
Language                                 : Russian
Default                                  : Yes
Forced                                   : No

Menu
00:00:00.000                             : en:Глава 1
00:05:18.760                             : en:Глава 2
00:11:59.000                             : en:Глава 3
00:18:06.520                             : en:Глава 4
00:26:13.960                             : en:Глава 5
00:33:08.400                             : en:Глава 6
00:41:30.160                             : en:Глава 7
00:47:55.720                             : en:Глава 8
00:55:33.760                             : en:Глава 9
01:01:29.280                             : en:Глава 10
01:07:41.280                             : en:Глава 11
01:15:00.000                             : en:Глава 12




Скриншоты:
[+] Всего файлов в раздаче - 1:
Provodnik.2018.AVC.ExKinoRay.mkv1.37 GB

Текущая раздача:
ДатаКомментарии    РазмерПиры
2019-01-02 U Проводник (2018) WEB-DLRip-AVC от ExKinoRay | iTunes 1.37 GB ↑ 192 ↓ 47

Показать еще раздачи по запросу проводник:
2019-01-05 U Проводник (2018) WEB-DLRip-AVC от OlLanDGroup | iTunes 1К745.52 MB ↑ 51 ↓ 8
2019-01-03 U Проводник (2018) WEB-DLRip от Scarabey | iTunes 1.44 GB ↑ 76 ↓ 37
2019-01-02 U Проводник (2018) WEB-DLRip от GeneralFilm | iTunes 744.71 MB ↑ 151 ↓ 44
2019-01-02 U Проводник (2018) WEB-DLRip-AVC от OlLanDGroup | iTunes 1.28 GB ↑ 232 ↓ 59
2019-01-01 U Проводник (2018) WEB-DLRip от MegaPeer | iTunes 1.46 GB ↑ 321 ↓ 188
2019-01-01 U Проводник (2018) WEB-DLRip | iTunes 2К1.46 GB ↑ 840 ↓ 303
2019-01-01 U Проводник (2018) WEB-DL 1080p | iTunes 2.95 GB ↑ 832 ↓ 426

Отзывы
Зарегистрируйтесь чтобы добавить комментарий.
Обратная связь
Copyleft ©