↑↓Torrent.by
Поиск
Логин: Регистрация
Пароль: Восстановить пароль
Загрузка...

Проводник (2018) WEB-DLRip от GeneralFilm | iTunes

Скачать provodnik-2018-web-dlrip-ot-generalfilm-itunes.torrent
U Магнитная ссылка Размер: 744.71 MB Раздают: 151 Качают: 44 Добавлен: 2019-01-02 15:36:06
Проводник (2018) WEB-DLRip от GeneralFilm | iTunes

Оригинальное название: Проводник
Год выпуска: 2018
Жанр:  Ужасы, триллер
Выпущено: Россия, Мотор Фильм Студия, Пропеллер Продакшн
Режиссер: Илья Максимов
В ролях: Александра Бортич, Евгений Цыганов, Александр Робак, Вячеслав Разбегаев, Владимир Яглыч, Константин Мурзенко, Юрий Скулябин, Марта Тимофеева, Екатерина Рокотова, Василий Бочкарев

О фильме: Главная героиня, девушка Катя, обладает мистическим даром: она видит призраков. Когда пропадает её сестра-близнец, девушка в одиночку бросается на поиски. В полиции настаивают, что сестры вообще не существует, что она - плод Катиного больного воображения. Однако в процессе поисков сестры Катя понимает, что в городе орудует серийный маньяк, и сестра - одна из его жертв. Еще есть надежда спасти ее, но в мрачном, полном тайн городе нельзя доверять никому, даже самой себе...

Качество: WEB-DLRip
Видео: XviD build 73, 720x304 (2.35:1), 25.000 fps, 1069 Kbps (0.195 bit/pixel)
Аудио: 48.0 kHz, MP3, 2/0 ch, 128 kbps
Продолжительность: 01:26:18
Перевод: Не требуется
Cубтитры: нет

Релиз:


[+] MediaInfo

General
Complete name               : D:RazdachiProvodnik.2018.XviD.WEB-DLRip.GeneralFilm.avi
Format                      : AVI
Format/Info                 : Audio Video Interleave
File size                   : 745 MiB
Duration                    : 1 h 26 min
Overall bit rate            : 1 206 kb/s
Writing application         : VirtualDubMod 1.5.10.3 | www.virtualdub-fr.org || (build 2550/release)
Writing library             : VirtualDubMod build 2550/release

Video
ID                          : 0
Format                      : MPEG-4 Visual
Format profile              : Advanced Simple@L5
Format settings, BVOP       : 1
Format settings, QPel       : No
Format settings, GMC        : No warppoints
Format settings, Matrix     : Custom
Codec ID                    : XVID
Codec ID/Hint               : XviD
Duration                    : 1 h 26 min
Bit rate                    : 1 069 kb/s
Width                       : 720 pixels
Height                      : 304 pixels
Display aspect ratio        : 2.35:1
Frame rate                  : 25.000 FPS
Color space                 : YUV
Chroma subsampling          : 4:2:0
Bit depth                   : 8 bits
Scan type                   : Progressive
Compression mode            : Lossy
Bits/(Pixel*Frame)          : 0.195
Stream size                 : 660 MiB (89%)
Writing library             : XviD 73

Audio
ID                          : 1
Format                      : MPEG Audio
Format version              : Version 1
Format profile              : Layer 3
Codec ID                    : 55
Codec ID/Hint               : MP3
Duration                    : 1 h 26 min
Bit rate mode               : Constant
Bit rate                    : 128 kb/s
Channel(s)                  : 2 channels
Sampling rate               : 48.0 kHz
Compression mode            : Lossy
Stream size                 : 79.0 MiB (11%)
Alignment                   : Aligned on interleaves
Interleave, duration        : 40  ms (1.00 video frame)
Interleave, preload duratio : 504  ms
Writing library             : LAME3.99r
Encoding settings           : -m s -V 4 -q 2 -lowpass 17 -b 128



Скриншоты:
[+] Всего файлов в раздаче - 1:
Provodnik.2018.XviD.WEB-DLRip.GeneralFilm.avi744.71 MB

Текущая раздача:
ДатаКомментарии    РазмерПиры
2019-01-02 U Проводник (2018) WEB-DLRip от GeneralFilm | iTunes 744.71 MB ↑ 151 ↓ 44

Показать еще раздачи по запросу проводник:
2019-01-05 U Проводник (2018) WEB-DLRip-AVC от OlLanDGroup | iTunes 1К745.52 MB ↑ 51 ↓ 8
2019-01-03 U Проводник (2018) WEB-DLRip от Scarabey | iTunes 1.44 GB ↑ 76 ↓ 37
2019-01-02 U Проводник (2018) WEB-DLRip-AVC от ExKinoRay | iTunes 1.37 GB ↑ 192 ↓ 47
2019-01-02 U Проводник (2018) WEB-DLRip-AVC от OlLanDGroup | iTunes 1.28 GB ↑ 232 ↓ 59
2019-01-01 U Проводник (2018) WEB-DLRip от MegaPeer | iTunes 1.46 GB ↑ 322 ↓ 188
2019-01-01 U Проводник (2018) WEB-DLRip | iTunes 2К1.46 GB ↑ 841 ↓ 303
2019-01-01 U Проводник (2018) WEB-DL 1080p | iTunes 2.95 GB ↑ 833 ↓ 426

Отзывы
Зарегистрируйтесь чтобы добавить комментарий.
Обратная связь
Copyleft ©