↑↓Torrent.by
Поиск
Логин: Регистрация
Пароль: Восстановить пароль
Загрузка...

Гаражный папа [01-02 из 02] (2018) WEBRip от GeneralFilm

Скачать garazhnyy-papa-01-02-iz-2018-webrip-ot-generalfilm.torrent
U Магнитная ссылка Размер: 1.09 GB Раздают: 153 Качают: 71 Добавлен: 2019-01-03 07:53:28
Гаражный папа [01-02 из 02] (2018) WEBRip от GeneralFilm

Год выпуска: 2018
Жанр:  комедия
Выпущено: Россия, «Медиа Контент групп»
Режиссер: Александр Новиков-Янгинов, Станислав Либин.
В ролях: Антон Эльдаров, Михаил Тарабукин, Фёдор Лавров, Андрей Аверьянов, Светлана Колпакова, Александра Велескевич, Надежда Азоркина и др.

О фильме: Маленькая ложь на фоне ремонтных работ, да еще и в канун Нового года оборачивается для двух близких друзей комедией положений. Кеша, готовясь к первой встрече с невестой, становится жертвой нелепых обстоятельств: его лучший друг Аркадий, изменяющий своей жене, приглашает новую пассию Марину на свидание в гараж. По дороге он проваливается в яму — в это время в городе ведутся ремонтные работы. Спасти ситуацию может только Кеша, но он попадает в засаду, организованную милицией для поимки вора по прозвищу Гаражный Папа. Помочь Кеше должен Аркадий: перед ним встает сложный выбор — спасти лучшего друга и признаться в измене или пустить ситуацию на самотек.

Качество: WEBRip
Видео: XviD build 73, 720x400 (16:9), 25.000 fps, ~ 1400 Kbps (~ 0.195 bit/pixel)
Аудио: 48.0 kHz, AC3, 2/0 ch, 192 kbps
Продолжительность: 2 x ~ 00:45:00
Перевод: Не требуется
Cубтитры: нет

Релиз:
[+] MediaInfo

General
Complete name               : D:RazdachiGarazhnyj.Papa.2018.WEBRip.GeneralFilmGarazhnyj.Papa.e01.avi
Format                      : AVI
Format/Info                 : Audio Video Interleave
File size                   : 557 MiB
Duration                    : 48 min 46 s
Overall bit rate            : 1 598 kb/s
Writing application         : VirtualDubMod 1.5.10.3 | www.virtualdub-fr.org || (build 2550/release)
Writing library             : VirtualDubMod build 2550/release

Video
ID                          : 0
Format                      : MPEG-4 Visual
Format profile              : Advanced Simple@L5
Format settings, BVOP       : 1
Format settings, QPel       : No
Format settings, GMC        : No warppoints
Format settings, Matrix     : Custom
Codec ID                    : XVID
Codec ID/Hint               : XviD
Duration                    : 48 min 46 s
Bit rate                    : 1 396 kb/s
Width                       : 720 pixels
Height                      : 400 pixels
Display aspect ratio        : 16:9
Frame rate                  : 25.000 FPS
Color space                 : YUV
Chroma subsampling          : 4:2:0
Bit depth                   : 8 bits
Scan type                   : Progressive
Compression mode            : Lossy
Bits/(Pixel*Frame)          : 0.194
Stream size                 : 487 MiB (87%)
Writing library             : XviD 73

Audio
ID                          : 1
Format                      : AC-3
Format/Info                 : Audio Coding 3
Format settings, Endianness : Big
Codec ID                    : 2000
Duration                    : 48 min 46 s
Bit rate mode               : Constant
Bit rate                    : 192 kb/s
Channel(s)                  : 2 channels
Channel positions           : Front: L R
Sampling rate               : 48.0 kHz
Frame rate                  : 31.250 FPS (1536 SPF)
Bit depth                   : 16 bits
Compression mode            : Lossy
Stream size                 : 67.0 MiB (12%)
Alignment                   : Split accross interleaves
Interleave, duration        : 40  ms (1.00 video frame)
Interleave, preload duratio : 500  ms
Service kind                : Complete Main



Скриншоты:
[+] Всего файлов в раздаче - 2:
Garazhnyj.Papa.e01.avi557.25 MB
Garazhnyj.Papa.e02.avi557.19 MB

Текущая раздача:
ДатаКомментарии    РазмерПиры
2019-01-03 U Гаражный папа [01-02 из 02] (2018) WEBRip от GeneralFilm 1.09 GB ↑ 153 ↓ 71

Похожие раздачи по запросу - гаражный:
2019-01-03 U Гаражный папа [01-02 из 02] (2018) WEBRip 1080p от ExKinoRay 4.18 GB ↑ 113 ↓ 59
2019-01-03 U Гаражный папа [01-02 из 02] (2018) WEBRip от Files-x 1.22 GB ↑ 73 ↓ 30
2019-01-03 U Гаражный папа [01-02 из 02] (2018) WEBRip-AVC от Files-x 1.49 GB ↑ 102 ↓ 60

Отзывы
Зарегистрируйтесь чтобы добавить комментарий.
Обратная связь
Copyleft ©