↑↓Torrent.by
Поиск
Логин: Регистрация
Пароль: Восстановить пароль
Загрузка...

Вокруг света за 80 дней / Around the World in Eighty Days (1972) DVDRip-AVC от KORSAR | D | Полная версия

Скачать vokrug-sveta-za-80-dney-around-the-world-in-eighty-days-1972-dvdrip-avc-ot-korsar-d-polnaya-versiya.torrent
U Магнитная ссылка Размер: 5.79 GB Раздают: 70 Качают: 26 Добавлен: 2019-01-03 07:55:02
Вокруг света за 80 дней / Around the World in Eighty Days (1972) DVDRip-AVC от KORSAR | D | Полная версия


Вокруг света за 80 дней / Around the World in Eighty Days


Год выхода: 1972
Жанр: Мультфильм, комедия
Страна: Австралия
Продолжительность: 02:55:34+ 02:55:25
Перевод: Дублированный

Режиссер: Лэйф Грэм / Leif Gram

О фильме: Отважный Филеас Фогг и его слуга Паспарту отправляются в путешествия по всем континентам, посещая самые замечательные города мира,
пересекая океаны, горы и пустыни. Детектив из Скотланд — Ярда преследует их на всем пути: из Англии в Каир, затем Бомбей и Гонконг.
Эта история очень увлекательна, она очаровывает всех детей

Кодек: х264
Качество: DVDRip-AVC
Видео: MPEG-4 AVC, 2000 Кбит/с, 700x572@746х572, 690x572@736х572, 25 fps
Аудио 1: Русский, AC3, 48 KHz, 2 ch, 192 kbps | Дублированный, (студия НОТА по заказу ТНТ)
Аудио 2: Английский, AC3, 48 KHz, 2 ch, 192 kbps | Оригинал

На Кинозал не  перезаливать


[+] Инфо файл

x264 [info]: frame I:2156  Avg QP:16.41  size: 61967
x264 [info]: frame P:63339 Avg QP:19.60  size: 22638
x264 [info]: frame B:195026 Avg QP:20.91  size:  5322

Общее
Уникальный идентификатор                 : 185724351961813872266868835760541818412 (0x8BB93586901B4E579AC44C808F285E2C)
Полное имя                               : I:Мульти-пультиВокруг света за 80 дней 1972_DVDRip-AVC_KORSAR1 Часть.mkv
Формат                                   : Matroska
Версия формата                           : Version 2
Размер файла                             : 2,89 Гбайт
Продолжительность                        : 2 ч. 53 м.
Общий поток                              : 2386 Кбит/сек
Дата кодирования                         : UTC 2019-01-01 07:15:27
Программа кодирования                    : mkvmerge v5.8.0 ('No Sleep / Pillow') built on Sep  2 2012 15:37:04
Библиотека кодирования                   : libebml v1.2.3 + libmatroska v1.3.0

Видео
Идентификатор                            : 1
Формат                                   : AVC
Формат/Информация                        : Advanced Video Codec
Профиль формата                          : High@L4.1
Настройки формата                        : CABAC / 16 Ref Frames
Параметр CABAC формата                   : Да
Параметр RefFrames формата               : 16 кадров
Идентификатор кодека                     : V_MPEG4/ISO/AVC
Продолжительность                        : 2 ч. 53 м.
Битрейт                                  : 2000 Кбит/сек
Ширина                                   : 700 пикселей
Высота                                   : 572 пикселя
Соотношение сторон                       : 4:3
Соотношение сторон в оригинале           : 4:3
Режим частоты кадров                     : Постоянный
Частота кадров                           : 25,000 кадров/сек
Цветовое пространство                    : YUV
Субдискретизация насыщенности            : 4:2:0
Битовая глубина                          : 8 бит
Тип развёртки                            : Прогрессивная
Бит/(Пиксели*Кадры)                      : 0.200
Размер потока                            : 2,37 Гбайт (82%)
Библиотека кодирования                   : x264 core 152 r2851kMod ba24899
Настройки программы                      : cabac=1 / ref=16 / deblock=1:-2:-2 / analyse=0x3:0x133 / me=umh / subme=11 / psy=1 / fade_compensate=0.00 / psy_rd=1.05:0.12 / mixed_ref=1 / me_range=48 / chroma_me=1 / trellis=2 / 8x8dct=1 / cqm=0 / deadzone=21,11 / fast_pskip=0 / chroma_qp_offset=-3 / threads=12 / lookahead_threads=3 / sliced_threads=0 / nr=0 / decimate=0 / interlaced=0 / bluray_compat=0 / constrained_intra=0 / bframes=12 / b_pyramid=2 / b_adapt=2 / b_bias=0 / direct=3 / weightb=1 / open_gop=0 / weightp=2 / keyint=250 / keyint_min=25 / scenecut=40 / intra_refresh=0 / rc_lookahead=40 / rc=2pass / mbtree=0 / bitrate=2000 / ratetol=1.0 / qcomp=0.60 / qpmin=0 / qpmax=39 / qpstep=4 / cplxblur=20.0 / qblur=0.5 / vbv_maxrate=50000 / vbv_bufsize=62500 / nal_hrd=none / filler=0 / ip_ratio=1.25 / pb_ratio=1.30 / aq=1:1.00
Язык                                     : English
Default                                  : Да
Forced                                   : Нет
Цветовой диапазон                        : Limited
Основные цвета                           : BT.601 PAL
Характеристики трансфера                 : BT.470 System B, BT.470 System G
Коэффициенты матрицы                     : BT.470 System B, BT.470 System G

Аудио #1
Идентификатор                            : 2
Формат                                   : AC-3
Формат/Информация                        : Audio Coding 3
Параметр Endianness формата              : Big
Идентификатор кодека                     : A_AC3
Продолжительность                        : 2 ч. 53 м.
Вид битрейта                             : Постоянный
Битрейт                                  : 192 Кбит/сек
Каналы                                   : 2 канала
Расположение каналов                     : Front: L R
Частота                                  : 48,0 КГц
Частота кадров                           : 31,250 кадров/сек (1536 SPF)
Битовая глубина                          : 16 бит
Метод сжатия                             : С потерями
Размер потока                            : 239 Мбайт (8%)
Язык                                     : Russian
Default                                  : Да
Forced                                   : Нет

Аудио #2
Идентификатор                            : 3
Формат                                   : AC-3
Формат/Информация                        : Audio Coding 3
Параметр Endianness формата              : Big
Идентификатор кодека                     : A_AC3
Продолжительность                        : 2 ч. 53 м.
Вид битрейта                             : Постоянный
Битрейт                                  : 192 Кбит/сек
Каналы                                   : 2 канала
Расположение каналов                     : Front: L R
Частота                                  : 48,0 КГц
Частота кадров                           : 31,250 кадров/сек (1536 SPF)
Битовая глубина                          : 16 бит
Метод сжатия                             : С потерями
Размер потока                            : 239 Мбайт (8%)
Язык                                     : English
Default                                  : Нет
Forced                                   : Нет




Скриншоты:
[+] Всего файлов в раздаче - 2:
1 Часть.mkv2.89 GB
2 Часть.mkv2.89 GB

Текущая раздача:
ДатаКомментарии    РазмерПиры
2019-01-03 U Вокруг света за 80 дней / Around the World in Eighty Days (1972) DVDRip-AVC от KORSAR | D | Полная версия 5.79 GB ↑ 70 ↓ 26

Показать еще раздачи по запросу вокруг:
2019-01-13 U Вокруг света №02 (Февраль) (2019) PDF 43.14 MB ↑ 54 ↓ 13
2018-09-19 U Вокруг света №10 (Октябрь) (2018) PDF 119.64 MB ↑ 139 ↓ 12
2018-08-21 U Вокруг света №09 (Сентябрь) (2018) PDF 94.83 MB ↑ 126 ↓ 29
2018-07-26 U Вокруг света №08 (Август) (2018) PDF 109.49 MB ↑ 251 ↓ 16
2018-01-26 U Вокруг света №1 (январь) (2018) PDF 105.21 MB ↑ 226 ↓ 25
2017-11-26 U Вокруг света №11 (ноябрь) (2017) PDF 59.20 MB ↑ 282 ↓ 20
2017-08-22 U Вокруг смеха в Ялте (2017) WEBRip 720p от Files-x 2.34 GB ↑ 143 ↓ 51

Отзывы
Зарегистрируйтесь чтобы добавить комментарий.
Обратная связь
Copyleft ©