↑↓Torrent.by
Поиск
Логин: Регистрация
Пароль: Восстановить пароль
Загрузка...

Колетт / Colette (2018) BDRip 1080p | HDrezka Studio

Скачать kolett-colette-2018-bdrip-1080p-hdrezka-studio.torrent
U Магнитная ссылка Размер: 8.09 GB Раздают: 95 Качают: 68 Добавлен: 2019-01-03 12:07:52
Колетт / Colette (2018) BDRip 1080p | HDrezka Studio

Название: Колетт
Оригинальное название: Colette
Год выхода: 2018
Жанр: Драма, биография, история
Режиссер: Уош Уэстмоленд
В ролях: Кира Найтли, Элинор Томлинсон, Доминик Уэст, Фиона Шоу, Аийша Харт, Денис Гоф, Аль Уивер, Дики Бо, Роберт Пью, Кэролайн Болтон

О фильме: Яркая и талантливая Колетт пишет гениальные произведения, которые ее муж Вилли, посредственный писатель, выдает за свои. Книги становятся бестселлерами, а богемная пара превращается в сенсацию высшего света Парижа. Но когда Вилли пытается заставить Колетт написать еще один роман, она начинает борьбу за творческую свободу, бросая вызов общественным понятиям о литературе, моде и сексуальности.

Страна: Великобритания, США
Студия: BFI Film Fund, Bold Films, Killer Films, Number 9 Films, Pixoloid Studios
Продолжительность: 01:52:03
Перевод: Профессиональный, многоголосый, закадровый ~ HDrezka Studio

Файл
Кодек: MPEG-4 AVC
Качество: BDRip 1080p | Colette.2018.1080p.BluRay.x264-DRONES
Видео: 1920x808, 8641kb/s, 23.976fps
Звук:
1] 192kb/s, 2ch, 48000kHz, AC3 [RUS] | HDrezka Studio
2] 1509kb/s, 6ch, 48000kHz, DTS [ENG] | Английский оригинал
Субтитры: Отсутствуют


[+] MI

Формат                                   : Matroska
Версия формата                           : Version 4 / Version 2
Размер файла                             : 8,09 Гбайт
Продолжительность                        : 1 ч. 52 м.
Общий поток                              : 10,3 Мбит/сек
Дата кодирования                         : UTC 2019-01-02 11:02:40
Программа кодирования                    : mkvmerge v29.0.0 ('Like It Or Not') 64-bit
Библиотека кодирования                   : libebml v1.3.6 + libmatroska v1.4.9

Видео
Идентификатор                            : 1
Формат                                   : AVC
Формат/Информация                        : Advanced Video Codec
Профиль формата                          : High@L4.1
Настройки формата                        : CABAC / 5 Ref Frames
Параметр CABAC формата                   : Да
Параметр RefFrames формата               : 5 кадров
Идентификатор кодека                     : V_MPEG4/ISO/AVC
Продолжительность                        : 1 ч. 52 м.
Битрейт                                  : 8641 Кбит/сек
Ширина                                   : 1920 пикселей
Высота                                   : 808 пикселей
Соотношение сторон                       : 2,40:1
Режим частоты кадров                     : Постоянный
Частота кадров                           : 23,976 кадра/сек
Цветовое пространство                    : YUV
Субдискретизация насыщенности            : 4:2:0
Битовая глубина                          : 8 бит
Тип развёртки                            : Прогрессивная
Бит/(Пиксели*Кадры)                      : 0.232
Размер потока                            : 6,76 Гбайт (84%)
Библиотека кодирования                   : x264 core 157 r2935 545de2f
Настройки программы                      : cabac=1 / ref=5 / deblock=1:0:0 / analyse=0x3:0x133 / me=umh / subme=7 / psy=1 / psy_rd=1.00:0.00 / mixed_ref=1 / me_range=16 / chroma_me=1 / trellis=1 / 8x8dct=1 / cqm=0 / deadzone=21,11 / fast_pskip=0 / chroma_qp_offset=-2 / threads=25 / lookahead_threads=4 / sliced_threads=0 / nr=0 / decimate=1 / interlaced=0 / bluray_compat=0 / constrained_intra=0 / bframes=3 / b_pyramid=2 / b_adapt=1 / b_bias=0 / direct=1 / weightb=1 / open_gop=0 / weightp=2 / keyint=250 / keyint_min=23 / scenecut=40 / intra_refresh=0 / rc_lookahead=40 / rc=2pass / mbtree=1 / bitrate=8641 / ratetol=1.0 / qcomp=0.60 / qpmin=0 / qpmax=69 / qpstep=4 / cplxblur=20.0 / qblur=0.5 / ip_ratio=1.40 / aq=1:1.00
Язык                                     : English
Default                                  : Да
Forced                                   : Нет

Аудио #1
Идентификатор                            : 2
Формат                                   : AC-3
Формат/Информация                        : Audio Coding 3
Идентификатор кодека                     : A_AC3
Продолжительность                        : 1 ч. 52 м.
Вид битрейта                             : Постоянный
Битрейт                                  : 192 Кбит/сек
Каналы                                   : 2 канала
Расположение каналов                     : Front: L R
Частота                                  : 48,0 КГц
Частота кадров                           : 31,250 кадров/сек (1536 SPF)
Битовая глубина                          : 16 бит
Метод сжатия                             : С потерями
Размер потока                            : 154 Мбайт (2%)
Язык                                     : Russian
Default                                  : Да
Forced                                   : Да

Аудио #2
Идентификатор                            : 3
Формат                                   : DTS
Формат/Информация                        : Digital Theater Systems
Идентификатор кодека                     : A_DTS
Продолжительность                        : 1 ч. 52 м.
Вид битрейта                             : Постоянный
Битрейт                                  : 1509 Кбит/сек
Каналы                                   : 6 каналов
Расположение каналов                     : Front: L C R, Side: L R, LFE
Частота                                  : 48,0 КГц
Частота кадров                           : 93,750 кадра/сек (512 SPF)
Битовая глубина                          : 24 бит
Метод сжатия                             : С потерями
Размер потока                            : 1,18 Гбайт (15%)
Язык                                     : English
Default                                  : Нет
Forced                                   : Нет

Меню
00:00:00.000                             : en:00:00:00.000
00:06:46.156                             : en:00:06:46.156
00:12:25.787                             : en:00:12:25.787
00:18:55.468                             : en:00:18:55.468
00:24:20.834                             : en:00:24:20.834
00:29:14.628                             : en:00:29:14.628
00:36:25.600                             : en:00:36:25.600
00:42:02.895                             : en:00:42:02.895
00:48:34.411                             : en:00:48:34.411
00:52:45.746                             : en:00:52:45.746
00:57:36.411                             : en:00:57:36.411
01:02:17.943                             : en:01:02:17.943
01:09:44.931                             : en:01:09:44.931
01:15:22.017                             : en:01:15:22.017
01:19:53.288                             : en:01:19:53.288
01:23:17.201                             : en:01:23:17.201
01:29:26.611                             : en:01:29:26.611
01:35:05.575                             : en:01:35:05.575
01:41:11.232                             : en:01:41:11.232
01:45:15.309                             : en:01:45:15.309



Скриншоты:
[+] Всего файлов в раздаче - 1:
Colette.2018.1080p.mkv8.09 GB

Текущая раздача:
ДатаКомментарии    РазмерПиры
2019-01-03 U Колетт / Colette (2018) BDRip 1080p | HDrezka Studio 8.09 GB ↑ 95 ↓ 68

Показать еще раздачи по запросу колетт:
Сегодня U Колетт / Colette (2018) HDRip от MegaPeer | iTunes 744.38 MB ↑ 30 ↓ 4
Вчера U Колетт / Colette (2018) BDRip от MegaPeer | iTunes 1.41 GB ↑ 128 ↓ 34
2019-01-21 U Колетт / Colette (2018) BDRip 720p | iTunes 4.19 GB ↑ 167 ↓ 84
2019-01-21 U Колетт / Colette (2018) BDRip 1080p | iTunes 7.74 GB ↑ 286 ↓ 167
2019-01-21 U Колетт / Colette (2018) BDRip | iTunes 1.46 GB ↑ 398 ↓ 119
2019-01-09 U Колетт / Colette (2018) HDRip от Scarabey | HDRezka Studio 1.45 GB ↑ 58 ↓ 23
2019-01-02 U Колетт / Colette (2018) BDRip от MegaPeer | HDRezka Studio 1.46 GB ↑ 111 ↓ 32

Отзывы
Зарегистрируйтесь чтобы добавить комментарий.
Обратная связь
Copyleft ©