↑↓Torrent.by
Поиск
Логин: Регистрация
Пароль: Восстановить пароль
Загрузка...

Праздник (2019) WEBRip от GeneralFilm

Скачать prazdnik-2019-webrip-ot-generalfilm.torrent
U Магнитная ссылка Размер: 743.89 MB Раздают: 278 Качают: 72 Добавлен: 2019-01-03 16:58:21
Праздник (2019) WEBRip от GeneralFilm

Оригинальное название: Праздник
Год выпуска: 2019
Жанр:  Комедия, драма, военный, история
Выпущено: Россия
Режиссер: Алексей Красовский
В ролях: Ян Цапник, Алёна Бабенко, Павел Табаков, Анфиса Черных, Тимофей Трибунцев, Анастасия Чистякова (II)

О фильме: Блокадный Ленинград. В загородном доме Воскресенских, живущих «на особом положении», собираются шесть человек, и, несмотря на блокаду, они не голодают. У них есть сырая курица, которую некому приготовить. Раньше этим занималась кухарка, но её у Воскресенских накануне забрали — с наружи наступили тяжёлые времена, да и внутри ситуация тоже нелегкая: младший сын Денис, привёл голодную девушку Машу, старшая дочь Лиза — незнакомого мужчину, по имени Виталий за которого она, по её словам, собирается выйти замуж. До Нового 1942 Года остались считанные минуты, а количество проблем растёт как снежный ком.

Качество: WEBRip
Видео: XviD build 73, 720x400 (16:9), 23.976 fps, 1277 Kbps (0.185 bit/pixel)
Аудио: 48.0 kHz, MP3, 2/0 ch, 128 kbps
Продолжительность: 01:13:34
Перевод: Не требуется
Cубтитры: нет

Релиз:


[+] MediaInfo

General
Complete name               : D:RazdachiPrazdnik.2019.WEBRip.GeneralFilm.avi
Format                      : AVI
Format/Info                 : Audio Video Interleave
File size                   : 744 MiB
Duration                    : 1 h 13 min
Overall bit rate            : 1 414 kb/s
Writing application         : VirtualDubMod 1.5.10.3 | www.virtualdub-fr.org || (build 2550/release)
Writing library             : VirtualDubMod build 2550/release

Video
ID                          : 0
Format                      : MPEG-4 Visual
Format profile              : Advanced Simple@L5
Format settings, BVOP       : 1
Format settings, QPel       : No
Format settings, GMC        : No warppoints
Format settings, Matrix     : Custom
Codec ID                    : XVID
Codec ID/Hint               : XviD
Duration                    : 1 h 13 min
Bit rate                    : 1 277 kb/s
Width                       : 720 pixels
Height                      : 400 pixels
Display aspect ratio        : 16:9
Frame rate                  : 23.976 (24000/1001) FPS
Color space                 : YUV
Chroma subsampling          : 4:2:0
Bit depth                   : 8 bits
Scan type                   : Progressive
Compression mode            : Lossy
Bits/(Pixel*Frame)          : 0.185
Stream size                 : 672 MiB (90%)
Writing library             : XviD 73

Audio
ID                          : 1
Format                      : MPEG Audio
Format version              : Version 1
Format profile              : Layer 3
Codec ID                    : 55
Codec ID/Hint               : MP3
Duration                    : 1 h 13 min
Bit rate mode               : Constant
Bit rate                    : 128 kb/s
Channel(s)                  : 2 channels
Sampling rate               : 48.0 kHz
Compression mode            : Lossy
Stream size                 : 67.3 MiB (9%)
Alignment                   : Aligned on interleaves
Interleave, duration        : 42  ms (1.00 video frame)
Interleave, preload duratio : 504  ms
Writing library             : LAME3.99r
Encoding settings           : -m s -V 4 -q 2 -lowpass 17 -b 128



Скриншоты:
[+] Всего файлов в раздаче - 1:
Prazdnik.2019.WEBRip.GeneralFilm.avi743.89 MB

Текущая раздача:
ДатаКомментарии    РазмерПиры
2019-01-03 U Праздник (2019) WEBRip от GeneralFilm 743.89 MB ↑ 278 ↓ 72

Показать еще раздачи по запросу праздник:
Вчера U Праздник Нептуна (1986) DVDRip-AVC от KORSAR 910.14 MB ↑ 25 ↓ 10
2019-01-03 U Праздник (2019) WEBRip-AVC от ExKinoRay 1.09 GB ↑ 142 ↓ 71
2019-01-03 U Праздник (2019) WEBRip от Files-x 1.18 GB ↑ 337 ↓ 177
2018-03-25 U Праздник лета / Sommerfest (2017) WEBRip | GreenРай Studio 1.38 GB ↑ 53 ↓ 5
2018-03-12 U Праздник разбитых сердец (2017) WEB-DLRip-AVC от Files-x 1.37 GB ↑ 129 ↓ 30
2018-03-12 U Праздник разбитых сердец (2017) WEB-DLRip от Files-x 1.37 GB ↑ 169 ↓ 34
2018-02-05 U Тролли: праздник продолжается / Trolls: The Beat Goes On [S01] (2018) WEB-DLRip | NewStudio 1.77 GB ↑ 271 ↓ 31

Отзывы
Зарегистрируйтесь чтобы добавить комментарий.
Обратная связь
Copyleft ©