↑↓Torrent.by
Поиск
Логин: Регистрация
Пароль: Восстановить пароль
Загрузка...

Ее секрет [01-04 из 04] (2018) WEB-DLRip от GeneralFilm

Скачать ee-sekret-01-04-iz-2018-web-dlrip-ot-generalfilm.torrent
U Магнитная ссылка Размер: 2.18 GB Раздают: 95 Качают: 26 Добавлен: 2019-01-04 04:41:53
Ее секрет [01-04 из 04] (2018) WEB-DLRip от GeneralFilm

Оригинальное название: Ее секрет
Год выпуска: 2018
Жанр:  детектив
Выпущено: Россия, «ХитФильм»
Режиссер: Карен Захаров
В ролях: Филипп Бледный, Анастасия Мытражик, Александр Наумов, Ирина Чериченко, Александра Богданова, Ольга Науменко, Виталий Альшанский

О фильме: Игорь - молодой перспективный юрист, делающий первые шаги по завоеванию Москвы. И удача на его стороне - его берут на работу в крупную девелоперскую компанию. Впереди блестящая карьера и счастливая жизнь с красавицей Жанной. Их роман стремительно развивается, когда Игорь вдруг понимает, что дочь главы компании по уши влюблена в него. Маша - девушка невзрачная, словно не от мира сего, полная противоположность яркой и темпераментной Жанны. Но стоит Игорю только ответить взаимностью единственной дочери олигарха, как все, о чем он мечтал, сбудется. Однако Жанну он любит по-настоящему и уже собирается сделать ей предложение. Несколько месяцев Игорь ведет мучительную двойную жизнь, прежде чем окончательно делает выбор в пользу богатой наследницы. Однако он не догадывается, что стал пешкой в чужой игре. Очень скоро жизнь преуспевающего молодого человека превратится в настоящий ад, и ему снова придется делать выбор...

Качество: WEB-DLRip
Видео: XviD build 73, 720x400 (16:9), 25.000 fps, ~ 1540 Kbps (~ 0.214 bit/pixel)
Аудио: 48.0 kHz, AC3, 2/0 ch, 192 kbps
Продолжительность: 4 x ~ 00:45:00
Перевод: Не требуется
Cубтитры: нет

Релиз:
[+] MediaInfo

General
Complete name               : D:RazdachiEe.Sekret.2018.WEB-DLRip.GeneralFilmEe.Sekret.e01.avi
Format                      : AVI
Format/Info                 : Audio Video Interleave
File size                   : 557 MiB
Duration                    : 44 min 39 s
Overall bit rate            : 1 744 kb/s
Writing application         : VirtualDubMod 1.5.10.3 | www.virtualdub-fr.org || (build 2550/release)
Writing library             : VirtualDubMod build 2550/release

Video
ID                          : 0
Format                      : MPEG-4 Visual
Format profile              : Advanced Simple@L5
Format settings, BVOP       : 1
Format settings, QPel       : No
Format settings, GMC        : No warppoints
Format settings, Matrix     : Custom
Codec ID                    : XVID
Codec ID/Hint               : XviD
Duration                    : 44 min 39 s
Bit rate                    : 1 542 kb/s
Width                       : 720 pixels
Height                      : 400 pixels
Display aspect ratio        : 16:9
Frame rate                  : 25.000 FPS
Color space                 : YUV
Chroma subsampling          : 4:2:0
Bit depth                   : 8 bits
Scan type                   : Progressive
Compression mode            : Lossy
Bits/(Pixel*Frame)          : 0.214
Stream size                 : 493 MiB (88%)
Writing library             : XviD 73

Audio
ID                          : 1
Format                      : AC-3
Format/Info                 : Audio Coding 3
Format settings, Endianness : Big
Codec ID                    : 2000
Duration                    : 44 min 39 s
Bit rate mode               : Constant
Bit rate                    : 192 kb/s
Channel(s)                  : 2 channels
Channel positions           : Front: L R
Sampling rate               : 48.0 kHz
Frame rate                  : 31.250 FPS (1536 SPF)
Bit depth                   : 16 bits
Compression mode            : Lossy
Stream size                 : 61.3 MiB (11%)
Alignment                   : Split accross interleaves
Interleave, duration        : 40  ms (1.00 video frame)
Interleave, preload duratio : 500  ms
Service kind                : Complete Main



Скриншоты:
[+] Всего файлов в раздаче - 4:
Ee.Sekret.e01.avi556.98 MB
Ee.Sekret.e02.avi556.98 MB
Ee.Sekret.e03.avi556.86 MB
Ee.Sekret.e04.avi557.11 MB

Текущая раздача:
ДатаКомментарии    РазмерПиры
2019-01-04 U Ее секрет [01-04 из 04] (2018) WEB-DLRip от GeneralFilm 2.18 GB ↑ 95 ↓ 26

Показать еще раздачи по запросу секрет:
2019-01-04 U Ее секрет [01-04 из 04] (2018) WEB-DLRip-AVC от Files-x 2.28 GB ↑ 208 ↓ 54
2019-01-04 U Ее секрет [01-04 из 04] (2018) SATRip 2.31 GB ↑ 219 ↓ 75
2019-01-03 U Ее секрет [01-04 из 04] (2018) SATRip-AVC 2.36 GB ↑ 8 ↓ 11
2018-12-17 U Секрет - Коллекция легендарных песен (2014) MP3 634.49 MB ↑ 58 ↓ 23
2018-01-01 U Фиксики: Большой секрет (2017) WEB-DLRip-AVC от ExKinoRay | iTunes 746.16 MB ↑ 538 ↓ 58
2017-12-18 U Бит-квартет Секрет - Концерт у Маргулиса на НТВ [16.12] (2017) HDTVRip 928.70 MB ↑ 61 ↓ 8
2017-12-17 U Бит-квартет Секрет - Концерт у Маргулиса на НТВ [16.12] (2017) HDTV 1080i 3.30 GB ↑ 98 ↓ 34

Отзывы
Зарегистрируйтесь чтобы добавить комментарий.
Обратная связь
Copyleft ©