↑↓Torrent.by
Поиск
Логин: Регистрация
Пароль: Восстановить пароль
Загрузка...

Догмэн / Dogman (2018) BDRip-AVC от OlLanDGroup | HDRezka Studio

Скачать dogmen-dogman-2018-bdrip-avc-ot-ollandgroup-hdrezka-studio.torrent
U Магнитная ссылка Размер: 1.61 GB Раздают: 206 Качают: 42 Добавлен: 2019-01-04 18:10:28
Догмэн / Dogman (2018) BDRip-AVC от OlLanDGroup | HDRezka Studio

Догмэн / Dogman

Год выпуска: 2018
Страна: Италия, Франция
Производство: Archimede, Le Pacte, Rai Cinema
Жанр:  Триллер, драма, криминал

Режиссёр: Маттео Гарроне
В ролях: Марчелло Фонте, Эдоардо Пеше, Нунциа Скьяно, Адамо Дионизи, Франческо Аквароли, Джанлука Гобби, Алида Бальдари Калабрия, Лаура Пиццирани, Джанкарло Поркачча, Аньелло Арена

Перевод: Профессиональный (многоголосый, закадровый) | HDRezka Studio
Субтитры: Нет
Реклама: Отсутствует

Описание: Марчелло — маленький человек с большим сердцем и грустными глазами. Он держит парикмахерскую для собак «Догмэн» и умеет усмирить ласковым словом и питбуля, и местного громилу Симоне, который терроризирует всю округу. Марчелло мечтает увезти любимую дочку в далекое путешествие, но по доброте душевной сопровождает Симоне в его криминальных вылазках, и однажды это приводит к катастрофе. Преданный другом, Марчелло впервые в жизни решается объявить настоящую войну.

Качество: BDRip-AVC | BluRay Disc | Dogman 2018 1080p FRA BluRay AVC DTS-HD MA 5.1-DIY@HDHome
Продолжительность: 01:42:58

Формат: MKV
Видео кодек: MPEG-4 AVC
Аудио кодек: AC3
Видео: 1024x428 (2.40:1), 23,976 fps, x264 ~2 042 kbps avg, 0.194 bit/pixel
Аудио #1: 48 kHz, AC3 Dolby Digital, 2 (L,R) ch, ~192.00 kbps avg | RUS (HDRezka Studio)

Дата премьеры (мир): 16 мая 2018
Дата премьеры (РФ): 15 ноября 2018, «A-One Films»

Релиз:


[+] MediaInfo

Общее
Уникальный идентификатор                 : 114370363007813095125047325139842926187 (0x560AEE417C1AF905329CE92C837C866B)
Полное имя                               : F:OlLanDGroupDogman.2018.BDRip(AVC).OlLanDGroup.mkv
Формат                                   : Matroska
Версия формата                           : Version 4 / Version 2
Размер файла                             : 1,61 Гбайт
Продолжительность                        : 1 ч. 42 м.
Общий поток                              : 2234 Кбит/сек
Название фильма                          : Dogman.2018   #TorpedoUK#
Дата кодирования                         : UTC 2019-01-03 17:25:13
Программа кодирования                    : mkvmerge v29.0.0 ('Like It Or Not') 64-bit
Библиотека кодирования                   : libebml v1.3.6 + libmatroska v1.4.9

Видео
Идентификатор                            : 1
Формат                                   : AVC
Формат/Информация                        : Advanced Video Codec
Профиль формата                          : High@L4.1
Параметр CABAC формата                   : Да
Параметр ReFrames формата                : 12 кадров
Идентификатор кодека                     : V_MPEG4/ISO/AVC
Продолжительность                        : 1 ч. 42 м.
Битрейт                                  : 2042 Кбит/сек
Ширина                                   : 1024 пикселя
Высота                                   : 428 пикселей
Соотношение сторон                       : 2,40:1
Режим частоты кадров                     : Постоянный
Частота кадров                           : 23,976 (24000/1001) кадра/сек
Цветовое пространство                    : YUV
Субдискретизация насыщенности            : 4:2:0
Битовая глубина                          : 8 бит
Тип развёртки                            : Прогрессивная
Бит/(Пиксели*Кадры)                      : 0.194
Размер потока                            : 1,47 Гбайт (91%)
Библиотека кодирования                   : x264 core 152 r2851 ba24899
Настройки программы                      : cabac=1 / ref=12 / deblock=1:-3:-3 / analyse=0x3:0x133 / me=umh / subme=11 / psy=1 / psy_rd=0.99:0.03 / mixed_ref=1 / me_range=32 / chroma_me=1 / trellis=2 / 8x8dct=1 / cqm=0 / deadzone=21,11 / fast_pskip=0 / chroma_qp_offset=-3 / threads=13 / lookahead_threads=3 / sliced_threads=0 / nr=0 / decimate=0 / interlaced=0 / bluray_compat=0 / constrained_intra=0 / bframes=10 / b_pyramid=2 / b_adapt=2 / b_bias=0 / direct=3 / weightb=1 / open_gop=0 / weightp=2 / keyint=240 / keyint_min=23 / scenecut=40 / intra_refresh=0 / rc_lookahead=40 / rc=2pass / mbtree=0 / bitrate=2042 / ratetol=1.0 / qcomp=0.60 / qpmin=0 / qpmax=69 / qpstep=4 / cplxblur=20.0 / qblur=0.5 / vbv_maxrate=50000 / vbv_bufsize=62500 / nal_hrd=none / filler=0 / ip_ratio=1.40 / pb_ratio=1.30 / aq=1:1.00
Язык                                     : English
Default                                  : Да
Forced                                   : Нет

Аудио
Идентификатор                            : 2
Формат                                   : AC-3
Формат/Информация                        : Audio Coding 3
Расширение режима                        : CM (complete main)
Параметр Endianness формата              : Big
Идентификатор кодека                     : A_AC3
Продолжительность                        : 1 ч. 42 м.
Вид битрейта                             : Постоянный
Битрейт                                  : 192 Кбит/сек
Каналы                                   : 2 канала
Расположение каналов                     : Front: L R
Частота                                  : 48,0 КГц
Частота кадров                           : 31,250 кадров/сек (1536 spf)
Битовая глубина                          : 16 бит
Метод сжатия                             : С потерями
Размер потока                            : 141 Мбайт (9%)
Заголовок                                : MVO [HDRezka Studio]
Язык                                     : Russian
Default                                  : Да
Forced                                   : Нет

Меню
00:00:00.000                             : en:00:00:00.000
00:08:35.306                             : en:00:08:35.306
00:15:45.819                             : en:00:15:45.819
00:25:01.249                             : en:00:25:01.249
00:33:13.991                             : en:00:33:13.991
00:41:21.770                             : en:00:41:21.770
00:49:12.741                             : en:00:49:12.741
00:58:00.518                             : en:00:58:00.518
01:09:36.881                             : en:01:09:36.881
01:19:23.467                             : en:01:19:23.467
01:28:58.332                             : en:01:28:58.332
01:37:37.643                             : en:01:37:37.643
01:42:58.171                             : en:01:42:58.171



Скриншоты:
[+] Всего файлов в раздаче - 1:
Dogman.2018.BDRip(AVC).OlLanDGroup.mkv1.61 GB

Текущая раздача:
ДатаКомментарии    РазмерПиры
2019-01-04 U Догмэн / Dogman (2018) BDRip-AVC от OlLanDGroup | HDRezka Studio 1.61 GB ↑ 206 ↓ 42

Похожие раздачи по запросу - догмэн:
2019-01-05 U Догмэн / Dogman (2018) HDRip | HDRezka Studio 1К2.18 GB ↑ 68 ↓ 7
2019-01-04 U Догмэн / Dogman (2018) BDRip 720p | HDRezka Studio 4.84 GB ↑ 138 ↓ 80
2019-01-04 U Догмэн / Dogman (2018) BDRip 1080p | HDRezka Studio 12.45 GB ↑ 203 ↓ 137
2019-01-04 U Догмэн / Dogman (2018) BDRip от MegaPeer | HDRezka Studio 745.64 MB ↑ 94 ↓ 25
2019-01-03 U Догмэн / Dogman (2018) BDRip от MegaPeer | HDRezka Studio 1.46 GB ↑ 569 ↓ 277

Отзывы
Зарегистрируйтесь чтобы добавить комментарий.
Обратная связь
Copyleft ©