↑↓Torrent.by
Поиск
Логин: Регистрация
Пароль: Восстановить пароль
Загрузка...

Агент Джонни Инглиш 3.0 / Johnny English Strikes Again (2018) BDRip 1080p | HDrezka Studio

Скачать agent-dzhonni-inglish-3-0-johnny-english-strikes-again-2018-bdrip-1080p-hdrezka-studio.torrent
U Магнитная ссылка Размер: 8.28 GB Раздают: 1259 Качают: 975 Добавлен: 2019-01-04 18:10:39
Агент Джонни Инглиш 3.0 / Johnny English Strikes Again (2018) BDRip 1080p | HDrezka Studio

Информация о фильме
Название: Агент Джонни Инглиш 3.0
Оригинальное название: Johnny English Strikes Again
Год выпуска: 2018
Жанр: боевик, комедия, приключения
Режиссер: Дэвид Керр
В ролях: Эмма Томпсон, Ольга Куриленко, Роуэн Эткинсон, Джейк Лэси, Бен Миллер, Миранда Хеннесси, Адам Джеймс, Пиппа Беннетт-Уорнер, Ирена Тишина, Джеймс Илс

О фильме: Когда все агенты секретной службы Её Величества внезапно выходят из строя, в игру вступает запасной вариант. Образец английского стиля и любимец роковых красоток; король безвыходных ситуаций и хранитель аналоговых традиций в цифровом мире, агент Джонни Инглиш - боль и гордость британской разведки. Этому парню есть что взбалтывать, и он взболтает не по-детски.

Страна: Великобритания, Франция, США
Студия: Universal Pictures, Studio Canal, Working Title Films
Продолжительность: 01:28:20
Перевод: Профессиональный (многоголосый, закадровый) HDRezka Studio

Файл
Формат: Matroska
Качество: BDRip 1080p
Видео: MPEG-4 AVC, 1920x804, 23.976 fps, 11500 kbps
Аудио RUS: AC3, 2 ch, 384 kbps
Аудио ENG: DTS, 6 ch, 1509 kbps
Субтитры: None

***Примечание: Без рекламы.
***Релиз: GoFi.


[+] Media Info
Общее
Уникальный идентификатор : 40213400878848105461914164932847560705 (0x1E40D1BD1BDE098DA79507B577336801)
Полное имя : C:UsersDOMKPATDesktopJohnny.English.Strikes.Again.2018.BDRip.1080p.by GoFi.mkv
Формат : Matroska
Версия формата : Version 4
Размер файла : 8,28 Гбайт
Продолжительность : 1 ч. 28 м.
Общий поток : 13,4 Мбит/сек
Дата кодирования : UTC 2019-01-04 11:15:36
Программа кодирования : mkvmerge v29.0.0 ('Like It Or Not') 64-bit
Библиотека кодирования : libebml v1.3.6 + libmatroska v1.4.9

Видео
Идентификатор : 1
Формат : AVC
Формат/Информация : Advanced Video Codec
Профиль формата : High@L4.1
Настройки формата : CABAC / 4 Ref Frames
Параметр CABAC формата : Да
Параметр RefFrames формата : 4 кадра
Идентификатор кодека : V_MPEG4/ISO/AVC
Продолжительность : 1 ч. 28 м.
Битрейт : 11,5 Мбит/сек
Ширина : 1920 пикселей
Высота : 804 пикселя
Соотношение сторон : 2,40:1
Режим частоты кадров : Постоянный
Частота кадров : 23,976 (24000/1001) кадра/сек
Цветовое пространство : YUV
Субдискретизация насыщенности : 4:2:0
Битовая глубина : 8 бит
Тип развёртки : Прогрессивная
Бит/(Пиксели*Кадры) : 0.311
Размер потока : 6,95 Гбайт (84%)
Заголовок : Johnny.English.Strikes.Again.2018.1080p.BluRay.x264.DTS-FGT
Библиотека кодирования : x264 core 148 r2795M aaa9aa8
Настройки программы : cabac=1 / ref=4 / deblock=1:-2:-2 / analyse=0x3:0x113 / me=umh / subme=9 / psy=1 / psy_rd=1.00:0.15 / mixed_ref=1 / me_range=16 / chroma_me=1 / trellis=2 / 8x8dct=1 / cqm=0 / deadzone=21,11 / fast_pskip=1 / chroma_qp_offset=-3 / threads=24 / lookahead_threads=3 / sliced_threads=0 / nr=0 / decimate=1 / interlaced=0 / bluray_compat=0 / constrained_intra=0 / bframes=3 / b_pyramid=2 / b_adapt=1 / b_bias=0 / direct=3 / weightb=1 / open_gop=0 / weightp=2 / keyint=250 / keyint_min=25 / scenecut=40 / intra_refresh=0 / rc_lookahead=50 / rc=2pass / mbtree=1 / bitrate=11500 / ratetol=1.0 / qcomp=0.60 / qpmin=0 / qpmax=69 / qpstep=4 / cplxblur=20.0 / qblur=0.5 / vbv_maxrate=31250 / vbv_bufsize=31250 / nal_hrd=none / filler=0 / ip_ratio=1.40 / aq=1:1.00
Язык : English
Default : Да
Forced : Нет

Аудио #1
Идентификатор : 2
Формат : AC-3
Формат/Информация : Audio Coding 3
Коммерческое название : Dolby Digital
Идентификатор кодека : A_AC3
Продолжительность : 1 ч. 28 м.
Вид битрейта : Постоянный
Битрейт : 384 Кбит/сек
Каналы : 2 канала
Channel layout : L R
Частота : 48,0 КГц
Частота кадров : 31,250 кадров/сек (1536 SPF)
Битовая глубина : 16 бит
Метод сжатия : С потерями
Размер потока : 243 Мбайт (3%)
Язык : Russian
ServiceKind : Complete Main
Default : Да
Forced : Да

Аудио #2
Идентификатор : 3
Формат : DTS
Формат/Информация : Digital Theater Systems
Идентификатор кодека : A_DTS
Продолжительность : 1 ч. 28 м.
Вид битрейта : Постоянный
Битрейт : 1509 Кбит/сек
Каналы : 6 каналов
Channel layout : C L R Ls Rs LFE
Частота : 48,0 КГц
Частота кадров : 93,750 кадра/сек (512 SPF)
Битовая глубина : 24 бит
Метод сжатия : С потерями
Размер потока : 954 Мбайт (11%)
Заголовок : Johnny.English.Strikes.Again.2018.1080p.BluRay.x264.DTS-FGT
Язык : English
Default : Нет
Forced : Нет

Меню
00:00:00.000 : en:Chapter 01
00:05:06.681 : en:Chapter 02
00:09:05.378 : en:Chapter 03
00:13:14.794 : en:Chapter 04
00:19:22.369 : en:Chapter 05
00:21:31.832 : en:Chapter 06
00:26:41.975 : en:Chapter 07
00:32:31.240 : en:Chapter 08
00:34:48.086 : en:Chapter 09
00:39:49.428 : en:Chapter 10
00:45:49.121 : en:Chapter 11
00:51:22.204 : en:Chapter 12
00:54:31.851 : en:Chapter 13
00:58:58.201 : en:Chapter 14
01:02:58.441 : en:Chapter 15
01:08:21.597 : en:Chapter 16
01:11:40.963 : en:Chapter 17
01:15:03.415 : en:Chapter 18
01:20:54.808 : en:Chapter 19
01:23:52.527 : en:Chapter 20



Скриншоты:
[+] Всего файлов в раздаче - 1:
Johnny.English.Strikes.Again.2018.BDRip.1080p.by GoFi.mkv8.28 GB

Текущая раздача:
ДатаКомментарии    РазмерПиры
2019-01-04 U Агент Джонни Инглиш 3.0 / Johnny English Strikes Again (2018) BDRip 1080p | HDrezka Studio 8.28 GB ↑ 1259 ↓ 975

Показать еще раздачи по запросу агент:
2019-01-16 U Агент Джонни Инглиш 3.0 / Johnny English Strikes Again (2018) UHD BDRemux 2160p от селезень | 4K | HDR | Лицензия 34.50 GB ↑ 52 ↓ 35
2019-01-12 U Агент Джонни Инглиш 3.0 / Johnny English Strikes Again (2018) BDRip от ExKinoRay | Лицензия 1.46 GB ↑ 1 ↓ 251
2019-01-11 U Агент Джонни Инглиш 3.0 / Johnny English Strikes Again (2018) BDRemux 1080p от селезень | Лицензия 20.79 GB ↑ 174 ↓ 115
2019-01-11 U Агент Джонни Инглиш 3.0 / Johnny English Strikes Again (2018) HDRip от Scarabey | Лицензия 1.45 GB ↑ 215 ↓ 12
2019-01-11 U Агент Джонни Инглиш 3.0 / Johnny English Strikes Again (2018) BDRip-AVC от HELLYWOOD | Лицензия 2.18 GB ↑ 465 ↓ 90
2019-01-11 U Агент Джонни Инглиш 3.0 / Johnny English Strikes Again (2018) BDRip-AVC от ExKinoRay | Лицензия 1.57 GB ↑ 67 ↓ 22
2019-01-11 U Агент Джонни Инглиш 3.0 / Johnny English Strikes Again (2018) HDRip от Generalfilm | КПК | iTunes 335.29 MB ↑ 42 ↓ 8

Отзывы
Зарегистрируйтесь чтобы добавить комментарий.
Обратная связь
Copyleft ©