↑↓Torrent.by
Поиск
Логин: Регистрация
Пароль: Восстановить пароль
Загрузка...

Ничего хорошего в отеле «Эль рояль» / Bad Times at the El Royale (2018) BDRip 1080p | iTunes

Скачать nichego-horoshego-v-otele-el-royal-bad-times-at-the-royale-2018-bdrip-1080p-itunes.torrent
U Магнитная ссылка Размер: 11.95 GB Раздают: 545 Качают: 319 Добавлен: 2019-01-04 18:11:02
Ничего хорошего в отеле «Эль рояль» / Bad Times at the El Royale (2018) BDRip 1080p | iTunes

Ничего хорошего в отеле «Эль рояль» / Bad Times at the El Royale

Страна: США
Производство: 20th Century Fox Film Corporation
Год выпуска: 2018
Жанр:  триллер, драма, криминал, детектив
Продолжительность: 02:21:37

Режиссер: Дрю Годдард / Drew Goddard
В ролях: Джефф Бриджес, Синтиа Эриво, Дакота Джонсон, Джон Хэмм, Крис Хемсворт, Кэйли Спэни, Льюис Пуллман, Ник Офферман, Ксавье Долан

Описание: Семь незнакомцев, у каждого из которых есть своя тайна, встречаются в заброшенном отеле «Эль Рояль» на озере Тахо. И этой ночью у каждого будет шанс на искупление… прежде чем всё пойдет к чертям...

Перевод: Профессиональный (полное дублирование) | iTunes
Субтитры: русские (forced + full), украинские (forced), английские (full + SDH)

Качество: BDRip 1080p
Формат: МКV
Видео кодек: AVC
Аудио кодек: АС3 | DTS
Видео: 1920x804 (2.40:1), 23.976 fps, MPEG-4 AVC ~10.0 Mbps avg
Аудио №1: 48.0 kHz, AC3 Dolby Digital, 3/2 (L,C,R,l,r) + LFE ch, ~384 kbps | RUS
Аудио №2: 48.0 kHz, AC3 Dolby Digital, 2/0 (L,R) ch, ~192 kbps | UKR / DUB / iTunes
Аудио №3: 48.0 kHz, Digital Theater Systems, 3/2 (L,C,R,l,r) + LFE ch, ~1509 kbps | ENG
Формат субтитров: UTF-8 Plain Text

Дата премьеры (мир): 27 сентября 2018
Дата премьеры (РФ): 11 октября 2018, «Двадцатый Век Фокс СНГ»


[+] Дополнительная информация
Релиз от:




[+] Media Info
General
Unique ID                   : 168009492061661659721949330195729836298 (0x7E65737FE55055098C051B40068B690A)
Complete name               : Bad.Times.at.the.El.Royale.2018.bdriP.108Op.werecut.PROD.mkv
Format                      : Matroska
Format version              : Version 4
File size                   : 12.0 GiB
Duration                    : 2 h 21 min
Overall bit rate            : 12.1 Mb/s
Movie name                  : Bad Times at the El Royale 2018 OT werecut PROD.
Encoded date                : UTC 2019-01-03 23:22:08
Writing application         : mkvmerge v24.0.0 ('Beyond The Pale') 64-bit
Writing library             : libebml v1.3.6 + libmatroska v1.4.9

Video
ID                          : 1
Format                      : AVC
Format/Info                 : Advanced Video Codec
Format profile              : High@L4.1
Format settings             : CABAC / 5 Ref Frames
Format settings, CABAC      : Yes
Format settings, ReFrames   : 5 frames
Codec ID                    : V_MPEG4/ISO/AVC
Duration                    : 2 h 21 min
Bit rate                    : 10 000 kb/s
Width                       : 1 920 pixels
Height                      : 804 pixels
Display aspect ratio        : 2.40:1
Frame rate mode             : Constant
Frame rate                  : 23.976 (24000/1001) FPS
Color space                 : YUV
Chroma subsampling          : 4:2:0
Bit depth                   : 8 bits
Scan type                   : Progressive
Bits/(Pixel*Frame)          : 0.270
Stream size                 : 9.89 GiB (83%)
Title                       : WiKi
Writing library             : x264 core 130 r2273 b3065e6
Encoding settings           : cabac=1 / ref=5 / deblock=1:-3:-3 / analyse=0x3:0x113 / me=umh / subme=11 / psy=1 / psy_rd=1.00:0.00 / mixed_ref=1 / me_range=32 / chroma_me=1 / trellis=2 / 8x8dct=1 / cqm=0 / deadzone=21,11 / fast_pskip=0 / chroma_qp_offset=-4 / threads=12 / lookahead_threads=2 / sliced_threads=0 / nr=0 / decimate=0 / interlaced=0 / bluray_compat=0 / constrained_intra=0 / bframes=8 / b_pyramid=2 / b_adapt=2 / b_bias=0 / direct=3 / weightb=1 / open_gop=0 / weightp=2 / keyint=250 / keyint_min=23 / scenecut=40 / intra_refresh=0 / rc_lookahead=85 / rc=2pass / mbtree=1 / bitrate=10000 / ratetol=1.0 / qcomp=0.60 / qpmin=0 / qpmax=69 / qpstep=4 / cplxblur=20.0 / qblur=0.5 / ip_ratio=1.40 / aq=1:0.80
Language                    : English
Default                     : Yes
Forced                      : No

Audio #1
ID                          : 2
Format                      : AC-3
Format/Info                 : Audio Coding 3
Commercial name             : Dolby Digital
Codec ID                    : A_AC3
Duration                    : 2 h 21 min
Bit rate mode               : Constant
Bit rate                    : 384 kb/s
Channel(s)                  : 6 channels
Channel layout              : L R C LFE Ls Rs
Sampling rate               : 48.0 kHz
Frame rate                  : 31.250 FPS (1536 SPF)
Bit depth                   : 16 bits
Compression mode            : Lossy
Stream size                 : 389 MiB (3%)
Title                       : DUB [iTunes]
Language                    : Russian
Service kind                : Complete Main
Default                     : Yes
Forced                      : No

Audio #2
ID                          : 3
Format                      : AC-3
Format/Info                 : Audio Coding 3
Commercial name             : Dolby Digital
Codec ID                    : A_AC3
Duration                    : 2 h 21 min
Bit rate mode               : Constant
Bit rate                    : 192 kb/s
Channel(s)                  : 2 channels
Channel layout              : L R
Sampling rate               : 48.0 kHz
Frame rate                  : 31.250 FPS (1536 SPF)
Bit depth                   : 16 bits
Compression mode            : Lossy
Stream size                 : 195 MiB (2%)
Title                       : [iTunes]
Language                    : Ukrainian
Service kind                : Complete Main
Default                     : No
Forced                      : No

Audio #3
ID                          : 4
Format                      : DTS ES
Format/Info                 : Digital Theater Systems
Commercial name             : DTS-ES Matrix
Codec ID                    : A_DTS
Duration                    : 2 h 21 min
Bit rate mode               : Constant
Bit rate                    : 1 509 kb/s
Channel(s)                  : 6 channels
Channel(s)_Original         : 7 channels
Channel layout              : C L R Ls Rs Cb LFE
Sampling rate               : 48.0 kHz
Frame rate                  : 93.750 FPS (512 SPF)
Bit depth                   : 24 bits
Compression mode            : Lossy
Stream size                 : 1.49 GiB (12%)
Language                    : English
Default                     : No
Forced                      : No

Text #1
ID                          : 5
Format                      : UTF-8
Codec ID                    : S_TEXT/UTF8
Codec ID/Info               : UTF-8 Plain Text
Duration                    : 2 h 17 min
Bit rate                    : 0 b/s
Count of elements           : 11
Stream size                 : 329 Bytes (0%)
Title                       : Forced
Language                    : Russian
Default                     : Yes
Forced                      : Yes

Text #2
ID                          : 6
Format                      : UTF-8
Codec ID                    : S_TEXT/UTF8
Codec ID/Info               : UTF-8 Plain Text
Duration                    : 2 h 17 min
Bit rate                    : 57 b/s
Count of elements           : 1316
Stream size                 : 57.6 KiB (0%)
Language                    : Russian
Default                     : No
Forced                      : No

Text #3
ID                          : 7
Format                      : UTF-8
Codec ID                    : S_TEXT/UTF8
Codec ID/Info               : UTF-8 Plain Text
Duration                    : 2 h 11 min
Bit rate                    : 0 b/s
Count of elements           : 14
Stream size                 : 525 Bytes (0%)
Title                       : Forced
Language                    : Ukrainian
Default                     : No
Forced                      : No

Text #4
ID                          : 8
Format                      : UTF-8
Codec ID                    : S_TEXT/UTF8
Codec ID/Info               : UTF-8 Plain Text
Duration                    : 2 h 13 min
Bit rate                    : 41 b/s
Count of elements           : 1467
Stream size                 : 40.5 KiB (0%)
Language                    : English
Default                     : No
Forced                      : No

Text #5
ID                          : 9
Format                      : UTF-8
Codec ID                    : S_TEXT/UTF8
Codec ID/Info               : UTF-8 Plain Text
Duration                    : 2 h 18 min
Bit rate                    : 45 b/s
Count of elements           : 1711
Stream size                 : 46.2 KiB (0%)
Title                       : SDH
Language                    : English
Default                     : No
Forced                      : No

Menu
00:00:00.000                : en:Chapter 1
00:04:19.592                : en:Chapter 2
00:19:21.994                : en:Chapter 3
00:34:32.779                : en:Chapter 4
00:49:24.711                : en:Chapter 5
00:51:19.868                : en:Chapter 6
01:16:01.473                : en:Chapter 7
01:37:13.369                : en:Chapter 8
02:03:56.720                : en:Chapter 9
02:14:09.041                : en:Chapter 10
02:15:45.428                : en:Chapter 11



Скриншоты:
[+] Всего файлов в раздаче - 1:
Bad.Times.at.the.El.Royale.2018.bdriP.108Op.werecut.PROD.mkv11.95 GB

Текущая раздача:
ДатаКомментарии    РазмерПиры
2019-01-04 U Ничего хорошего в отеле «Эль рояль» / Bad Times at the El Royale (2018) BDRip 1080p | iTunes 11.95 GB ↑ 545 ↓ 319

Показать еще раздачи по запросу ничего:
2019-01-09 U Всё или ничего (2018) WEB-DLRip от Scarabey | iTunes 1.44 GB ↑ 86 ↓ 24
2019-01-08 U Всё или ничего (2018) WEB-DLRip-AVC от Generalfilm | iTunes 1.21 GB ↑ 163 ↓ 30
2019-01-07 U Всё или ничего (2018) WEB-DLRip-AVC от ExKinoRay | iTunes 744.60 MB ↑ 113 ↓ 45
2019-01-06 U Всё или ничего (2018) WEB-DLRip от Generalfilm | КПК | iTunes 336.55 MB ↑ 65 ↓ 30
2019-01-06 U Всё или ничего (2018) WEB-DLRip от GeneralFilm | iTunes 744.69 MB ↑ 158 ↓ 93
2019-01-06 U Всё или ничего (2018) WEB-DLRip от MegaPeer | iTunes 2К1.46 GB ↑ 1012 ↓ 385
2019-01-06 U Всё или ничего (2018) WEB-DL 1080p | iTunes 3.08 GB ↑ 677 ↓ 324

Отзывы
Зарегистрируйтесь чтобы добавить комментарий.
Обратная связь
Copyleft ©