↑↓Torrent.by
Поиск
Логин: Регистрация
Пароль: Восстановить пароль
Загрузка...

Агент Джонни Инглиш 3.0 / Johnny English Strikes Again (2018) BDRip 720p | HDRezka Studio

Скачать agent-dzhonni-inglish-3-0-johnny-english-strikes-again-2018-bdrip-720p-hdrezka-studio.torrent
U Магнитная ссылка Размер: 4.60 GB Раздают: 76 Качают: 39 Добавлен: 2019-01-05 04:43:04
Агент Джонни Инглиш 3.0 / Johnny English Strikes Again (2018) BDRip 720p | HDRezka Studio

Название: Агент Джонни Инглиш 3.0
Оригинальное название: Johnny English Strikes Again
Год выхода: 2018
Жанр: Боевик, комедия, приключения
Режиссер: Дэвид Керр
В ролях: Эмма Томпсон, Ольга Куриленко, Роуэн Эткинсон, Джейк Лэси, Бен Миллер, Миранда Хеннесси, Адам Джеймс, Пиппа Беннетт-Уорнер, Ирена Тишина, Джеймс Илс

О фильме:
Когда все агенты секретной службы Её Величества внезапно выходят из строя, в игру вступает запасной вариант. Образец английского стиля и любимец роковых красоток; король безвыходных ситуаций и хранитель аналоговых традиций в цифровом мире, агент Джонни Инглиш - боль и гордость британской разведки. Этому парню есть что взбалтывать, и он взболтает не по-детски.

Страна: Великобритания, Франция, США
Студия: Universal Pictures, Studio Canal, Working Title Films
Продолжительность: 01:28:33
Перевод: Профессиональный многоголосый | HDRezka Studio

Файл
Кодек: x.264
Качество: BDRip 720p
Видео: MPEG-4 AVC, 5561 Kбит/с, 1280x536, 23.976 кадр/с
Аудио #1: Русский ( АС3, 2ch, 192 Кбит/с, 48.0 KHz) Профессиональный (многоголосый, закадровый) HDRezka Studio
Аудио #2: Украинский ( АС3, 2ch, 192 Кбит/с, 48.0 KHz) Профессиональный (дублированный)
Аудио #3: Английский ( DTS, 6ch, 1510 Кбит/с, 48.0 KHz)
Субтитры: aнглийские, испанские, французские


[+] MediaInfo
Источник: Johnny.English.Strikes.Again.2018.720p.BluRay.X264-DEFLATE
General
Unique ID                      : 177831529644031046642278270647446198563 (0x85C91B573AAF802BACC090581CFAD923)
Complete name                  : Johnny.English.Strikes.Again.2018.BDRip.720p.mkv
Format                         : Matroska
Format version                 : Version 4 / Version 2
File size                      : 4.60 GiB
Duration                       : 1 h 28 min
Overall bit rate               : 7 441 kb/s
Encoded date                   : UTC 2019-01-04 17:28:29
Writing application            : mkvmerge v7.1.0 ('Good Love') 64bit built on Jul 27 2014 13:06:55
Writing library                : libebml v1.3.0 + libmatroska v1.4.1

Video
ID                             : 1
Format                         : AVC
Format/Info                    : Advanced Video Codec
Format profile                 : High@L4.1
Format settings, CABAC         : Yes
Format settings, RefFrames     : 9 frames
Codec ID                       : V_MPEG4/ISO/AVC
Duration                       : 1 h 28 min
Bit rate                       : 5 561 kb/s
Width                          : 1 280 pixels
Height                         : 536 pixels
Display aspect ratio           : 2.40:1
Frame rate mode                : Constant
Frame rate                     : 23.976 (24000/1001) FPS
Color space                    : YUV
Chroma subsampling             : 4:2:0
Bit depth                      : 8 bits
Scan type                      : Progressive
Bits/(Pixel*Frame)             : 0.338
Stream size                    : 3.43 GiB (75%)
Writing library                : x264 core 157 r2932+2 (master: 303c484 / tmod: 1b88d0a) [X86_64]
Encoding settings              : cabac=1 / ref=9 / deblock=1:-3:-3 / analyse=0x3:0x113 / me=umh / subme=10 / psy=1 / psy_rd=1.05:0.05 / mixed_ref=1 / me_range=48 / chroma_me=1 / trellis=2 / 8x8dct=1 / cqm=0 / deadzone=6,6 / fast_pskip=0 / chroma_qp_offset=-3 / threads=17 / lookahead_threads=2 / sliced_threads=0 / nr=0 / decimate=0 / interlaced=0 / bluray_compat=0 / constrained_intra=0 / bframes=9 / b_pyramid=2 / b_adapt=2 / b_bias=0 / direct=3 / weightb=1 / open_gop=0 / weightp=2 / keyint=250 / keyint_min=23 / scenecut=40 / intra_refresh=0 / rc_lookahead=60 / rc=2pass / mbtree=0 / bitrate=5561 / ratetol=1.0 / qcomp=0.80 / qpmin=0 / qpmax=69 / qpstep=4 / cplxblur=20.0 / qblur=0.5 / vbv_maxrate=50000 / vbv_bufsize=62500 / nal_hrd=none / filler=0 / ip_ratio=1.20 / pb_ratio=1.15 / aq=3:0.85
Language                       : English
Default                        : Yes
Forced                         : No

Audio #1
ID                             : 2
Format                         : AC-3
Format/Info                    : Audio Coding 3
Format settings, Endianness    : Big
Codec ID                       : A_AC3
Duration                       : 1 h 28 min
Bit rate mode                  : Constant
Bit rate                       : 192 kb/s
Channel(s)                     : 2 channels
Channel positions              : Front: L R
Sampling rate                  : 48.0 kHz
Frame rate                     : 31.250 FPS (1536 SPF)
Bit depth                      : 16 bits
Compression mode               : Lossy
Stream size                    : 121 MiB (3%)
Title                          : MVO | HDRezka Studio
Language                       : Russian
Service kind                   : Complete Main
Default                        : Yes
Forced                         : No

Audio #2
ID                             : 3
Format                         : AC-3
Format/Info                    : Audio Coding 3
Format settings, Endianness    : Big
Codec ID                       : A_AC3
Duration                       : 1 h 28 min
Bit rate mode                  : Constant
Bit rate                       : 192 kb/s
Channel(s)                     : 2 channels
Channel positions              : Front: L R
Sampling rate                  : 48.0 kHz
Frame rate                     : 31.250 FPS (1536 SPF)
Bit depth                      : 16 bits
Compression mode               : Lossy
Stream size                    : 122 MiB (3%)
Title                          : DUB
Language                       : Ukrainian
Service kind                   : Complete Main
Default                        : No
Forced                         : No

Audio #3
ID                             : 4
Format                         : DTS
Format/Info                    : Digital Theater Systems
Mode                           : 16
Format settings, Endianness    : Big
Codec ID                       : A_DTS
Duration                       : 1 h 28 min
Bit rate mode                  : Constant
Bit rate                       : 1 509 kb/s
Channel(s)                     : 6 channels
Channel positions              : Front: L C R, Side: L R, LFE
Sampling rate                  : 48.0 kHz
Frame rate                     : 93.750 FPS (512 SPF)
Bit depth                      : 24 bits
Compression mode               : Lossy
Stream size                    : 956 MiB (20%)
Language                       : English
Default                        : No
Forced                         : No

Text #1
ID                             : 5
Format                         : UTF-8
Codec ID                       : S_TEXT/UTF8
Codec ID/Info                  : UTF-8 Plain Text
Duration                       : 1 h 22 min
Bit rate                       : 57 b/s
Count of elements              : 1020
Stream size                    : 34.4 KiB (0%)
Title                          : Full
Language                       : English
Default                        : No
Forced                         : No

Text #2
ID                             : 6
Format                         : UTF-8
Codec ID                       : S_TEXT/UTF8
Codec ID/Info                  : UTF-8 Plain Text
Duration                       : 1 h 22 min
Bit rate                       : 66 b/s
Count of elements              : 1301
Stream size                    : 40.5 KiB (0%)
Title                          : SDH
Language                       : English
Default                        : No
Forced                         : No

Text #3
ID                             : 7
Format                         : UTF-8
Codec ID                       : S_TEXT/UTF8
Codec ID/Info                  : UTF-8 Plain Text
Duration                       : 1 h 27 min
Bit rate                       : 43 b/s
Count of elements              : 1005
Stream size                    : 27.6 KiB (0%)
Language                       : French
Default                        : No
Forced                         : No

Text #4
ID                             : 8
Format                         : UTF-8
Codec ID                       : S_TEXT/UTF8
Codec ID/Info                  : UTF-8 Plain Text
Duration                       : 1 h 22 min
Bit rate                       : 53 b/s
Count of elements              : 1025
Stream size                    : 32.4 KiB (0%)
Language                       : Spanish
Default                        : No
Forced                         : No

Menu
00:00:00.000                   : en:00:00:00.000
00:05:06.681                   : en:00:05:06.681
00:09:05.378                   : en:00:09:05.378
00:13:14.794                   : en:00:13:14.794
00:19:22.370                   : en:00:19:22.370
00:21:31.832                   : en:00:21:31.832
00:26:41.975                   : en:00:26:41.975
00:32:31.241                   : en:00:32:31.241
00:34:48.086                   : en:00:34:48.086
00:39:49.429                   : en:00:39:49.429
00:45:49.121                   : en:00:45:49.121
00:51:22.204                   : en:00:51:22.204
00:54:31.852                   : en:00:54:31.852
00:58:58.201                   : en:00:58:58.201
01:02:58.441                   : en:01:02:58.441
01:08:21.597                   : en:01:08:21.597
01:11:40.963                   : en:01:11:40.963
01:15:03.416                   : en:01:15:03.416
01:20:54.808                   : en:01:20:54.808
01:23:52.527                   : en:01:23:52.527



Скриншоты:
[+] Всего файлов в раздаче - 1:
Johnny.English.Strikes.Again.2018.BDRip.720p.mkv4.60 GB

Текущая раздача:
ДатаКомментарии    РазмерПиры
2019-01-05 U Агент Джонни Инглиш 3.0 / Johnny English Strikes Again (2018) BDRip 720p | HDRezka Studio 4.60 GB ↑ 76 ↓ 39

Показать еще раздачи по запросу агент:
2019-01-16 U Агент Джонни Инглиш 3.0 / Johnny English Strikes Again (2018) UHD BDRemux 2160p от селезень | 4K | HDR | Лицензия 34.50 GB ↑ 52 ↓ 35
2019-01-12 U Агент Джонни Инглиш 3.0 / Johnny English Strikes Again (2018) BDRip от ExKinoRay | Лицензия 1.46 GB ↑ 2 ↓ 251
2019-01-11 U Агент Джонни Инглиш 3.0 / Johnny English Strikes Again (2018) BDRemux 1080p от селезень | Лицензия 20.79 GB ↑ 175 ↓ 116
2019-01-11 U Агент Джонни Инглиш 3.0 / Johnny English Strikes Again (2018) HDRip от Scarabey | Лицензия 1.45 GB ↑ 215 ↓ 12
2019-01-11 U Агент Джонни Инглиш 3.0 / Johnny English Strikes Again (2018) BDRip-AVC от HELLYWOOD | Лицензия 2.18 GB ↑ 465 ↓ 90
2019-01-11 U Агент Джонни Инглиш 3.0 / Johnny English Strikes Again (2018) BDRip-AVC от ExKinoRay | Лицензия 1.57 GB ↑ 70 ↓ 22
2019-01-11 U Агент Джонни Инглиш 3.0 / Johnny English Strikes Again (2018) HDRip от Generalfilm | КПК | iTunes 335.29 MB ↑ 42 ↓ 8

Отзывы
Зарегистрируйтесь чтобы добавить комментарий.
Обратная связь
Copyleft ©