↑↓Torrent.by
Поиск
Логин: Регистрация
Пароль: Восстановить пароль
Загрузка...

Проводник (2018) WEB-DLRip-AVC от OlLanDGroup | iTunes

Скачать provodnik-2018-web-dlrip-avc-ot-ollandgroup-itunes.torrent
U Магнитная ссылка Размер: 745.52 MB Раздают: 51 Качают: 8 Добавлен: 2019-01-05 04:44:35
Проводник (2018) WEB-DLRip-AVC от OlLanDGroup | iTunes

Проводник
«Когда дар убивает»

Год выпуска: 2018
Страна: Россия
Производство: Motor! Film Studio, Propeller Prodakshn
Жанр:  Ужасы, триллер

Режиссёр: Илья Максимов
В ролях: Александра Бортич, Евгений Цыганов, Александр Робак, Вячеслав Разбегаев, Владимир Яглыч, Константин Мурзенко, Юрий Скулябин, Марта Тимофеева, Екатерина Рокотова, Василий Бочкарёв

Перевод: Оригинал | [iTunes]
Субтитры: Нет
Реклама: Отсутствует

Описание: Главная героиня, девушка Катя, обладает мистическим даром: она видит призраков. Когда пропадает её сестра-близнец, девушка в одиночку бросается на поиски. В полиции настаивают, что сестры вообще не существует, что она — плод Катиного больного воображения. Однако в процессе поисков сестры Катя понимает, что в городе орудует серийный маньяк, и сестра — одна из его жертв. Еще есть надежда спасти ее, но в мрачном, полном тайн городе нельзя доверять никому, даже самой себе…

Качество: WEB-DLRip-AVC | |
Продолжительность: 01:26:18

Формат: MKV
Видео кодек: MPEG-4 AVC
Аудио кодек: AC3
Видео: 720x302 (2.40:1), 25,000 fps, x264 ~1 136 kbps avg, 0.209 bit/pixel
Аудио #1: 48 kHz, HE-AAC, 2 (L,R) ch, ~72.00 kbps avg | RUS (iTunes)

Дата премьеры (мир): 31 октября 2018
Дата премьеры (РФ): 29 ноября 2018, «Двадцатый Век Фокс СНГ»
Цифровой релиз: 1 января 2019, «Планета информ»

Релиз: Rip by:


[+] MediaInfo

Общее
Уникальный идентификатор                 : 186605782542133980786344716017839963854 (0x8C62F768921376CBF5BB4CADD244FECE)
Полное имя                               : F:OlLanDGroupProvodnik.2018.WEB-DLRip(AVC).OlLanDGroup.mkv
Формат                                   : Matroska
Версия формата                           : Version 4 / Version 2
Размер файла                             : 746 Мбайт
Продолжительность                        : 1 ч. 26 м.
Общий поток                              : 1208 Кбит/сек
Название фильма                          : Provodnik.2018   #TorpedoUK#
Дата кодирования                         : UTC 2019-01-03 16:15:56
Программа кодирования                    : mkvmerge v29.0.0 ('Like It Or Not') 64-bit
Библиотека кодирования                   : libebml v1.3.6 + libmatroska v1.4.9

Видео
Идентификатор                            : 1
Формат                                   : AVC
Формат/Информация                        : Advanced Video Codec
Профиль формата                          : High@L4.1
Параметр CABAC формата                   : Да
Параметр ReFrames формата                : 10 кадров
Идентификатор кодека                     : V_MPEG4/ISO/AVC
Продолжительность                        : 1 ч. 26 м.
Битрейт                                  : 1136 Кбит/сек
Ширина                                   : 720 пикселей
Высота                                   : 302 пикселя
Соотношение сторон                       : 2,40:1
Режим частоты кадров                     : Постоянный
Частота кадров                           : 25,000 кадров/сек
Цветовое пространство                    : YUV
Субдискретизация насыщенности            : 4:2:0
Битовая глубина                          : 8 бит
Тип развёртки                            : Прогрессивная
Бит/(Пиксели*Кадры)                      : 0.209
Размер потока                            : 700 Мбайт (94%)
Библиотека кодирования                   : x264 core 146 r2538 121396c
Настройки программы                      : cabac=1 / ref=10 / deblock=1:-3:-2 / analyse=0x3:0x113 / me=umh / subme=10 / psy=1 / psy_rd=0.95:0.07 / mixed_ref=1 / me_range=48 / chroma_me=1 / trellis=2 / 8x8dct=1 / cqm=0 / deadzone=21,11 / fast_pskip=1 / chroma_qp_offset=-3 / threads=6 / lookahead_threads=1 / sliced_threads=0 / nr=0 / decimate=1 / interlaced=0 / bluray_compat=0 / constrained_intra=0 / bframes=11 / b_pyramid=2 / b_adapt=2 / b_bias=0 / direct=3 / weightb=1 / open_gop=0 / weightp=2 / keyint=240 / keyint_min=24 / scenecut=40 / intra_refresh=0 / rc_lookahead=40 / rc=2pass / mbtree=0 / bitrate=1136 / ratetol=1.0 / qcomp=0.60 / qpmin=0 / qpmax=69 / qpstep=4 / cplxblur=20.0 / qblur=0.5 / vbv_maxrate=50000 / vbv_bufsize=62500 / nal_hrd=none / filler=0 / ip_ratio=1.40 / pb_ratio=1.30 / aq=1:1.00
Default                                  : Да
Forced                                   : Нет

Аудио
Идентификатор                            : 2
Формат                                   : AAC
Формат/Информация                        : Advanced Audio Codec
Профиль формата                          : HE-AAC / LC
Идентификатор кодека                     : A_AAC
Продолжительность                        : 1 ч. 26 м.
Битрейт                                  : 72,0 Кбит/сек
Каналы                                   : 2 канала
Расположение каналов                     : Front: L R
Частота                                  : 48,0 КГц / 24,0 КГц
Частота кадров                           : 23,438 кадра/сек (1024 spf)
Метод сжатия                             : С потерями
Задержка видео                           : 31 мс.
Размер потока                            : 44,4 Мбайт (6%)
Заголовок                                : [iTunes]
Язык                                     : Russian
Default                                  : Да
Forced                                   : Нет

Меню
00:00:00.000                             : en:Глава 1
00:05:18.760                             : en:Глава 2
00:11:59.000                             : en:Глава 3
00:18:06.520                             : en:Глава 4
00:26:13.960                             : en:Глава 5
00:33:08.400                             : en:Глава 6
00:41:30.160                             : en:Глава 7
00:47:55.720                             : en:Глава 8
00:55:33.760                             : en:Глава 9
01:01:29.280                             : en:Глава 10
01:07:41.280                             : en:Глава 11
01:15:00.000                             : en:Глава 12



Скриншоты:
[+] Всего файлов в раздаче - 1:
Provodnik.2018.WEB-DLRip(AVC).OlLanDGroup.mkv745.52 MB

Текущая раздача:
ДатаКомментарии    РазмерПиры
2019-01-05 U Проводник (2018) WEB-DLRip-AVC от OlLanDGroup | iTunes 1 К 745.52 MB ↑ 51 ↓ 8

Показать еще раздачи по запросу проводник:
2019-01-03 U Проводник (2018) WEB-DLRip от Scarabey | iTunes 1.44 GB ↑ 76 ↓ 37
2019-01-02 U Проводник (2018) WEB-DLRip от GeneralFilm | iTunes 744.71 MB ↑ 151 ↓ 44
2019-01-02 U Проводник (2018) WEB-DLRip-AVC от ExKinoRay | iTunes 1.37 GB ↑ 192 ↓ 47
2019-01-02 U Проводник (2018) WEB-DLRip-AVC от OlLanDGroup | iTunes 1.28 GB ↑ 232 ↓ 59
2019-01-01 U Проводник (2018) WEB-DLRip от MegaPeer | iTunes 1.46 GB ↑ 321 ↓ 188
2019-01-01 U Проводник (2018) WEB-DLRip | iTunes 2К1.46 GB ↑ 840 ↓ 303
2019-01-01 U Проводник (2018) WEB-DL 1080p | iTunes 2.95 GB ↑ 832 ↓ 426

Отзывы
SAWALOMOV
Спасибо большое за размер и контейнер!

Зарегистрируйтесь чтобы добавить комментарий.
Обратная связь
Copyleft ©