↑↓Torrent.by
Поиск
Логин: Регистрация
Пароль: Восстановить пароль
Загрузка...

Дискотека 80-х Авторадио [02.01] (2019) HDTVRip-HEVC 1080p

Скачать diskoteka-80-h-avtoradio-02-01-2019-hdtvrip-hevc-1080p.torrent
U Магнитная ссылка Размер: 4.24 GB Раздают: 54 Качают: 51 Добавлен: 2019-01-05 10:16:55
Дискотека 80-х Авторадио [02.01] (2019) HDTVRip-HEVC 1080p

Жанр:  POP
Год выпуска: 2018
Продолжительность: 02:23:00

Описание: Главная дискотека страны состоялась уже в 17-й раз и, как и прежде, подарила зрителям невероятные визуальные эффекты, качественный звук и, конечно же, выступления самых любимых российских и зарубежных звезд диско на одной сцене. В этом году в "Олимпийском" выступили 17 исполнителей, в том числе  Андрей Державин и группа «Сталкер» Томас Андерс, C.C. Catch, Юрий Антонов, Boney M ft. Liz Mitchell, "Кар-Мэн", Dschinghis Khan, Анжелика Варум, Дмитрий Маликов.

Доп.информация: В исходнике Кузьмича звук 5.1 идет с двумя каналами(на четырех каналах тишина), поэтому я удалил лишние каналы.

Отдельная благодарность пользователю  kuzmichm2196 за исходник.

Формат: MKV
Качество: HDTVRip 1080p HEVC
Видео кодек: H.265
Аудио кодек: AC-3
Видео: HEVC/H.265, 1920x1080, ~3 800 Kbps, 25fps
Аудио: AC-3, 2 ch, 384 Kbps, 48000Hz
[+] Треклист:
1. Юрий Антонов - «Золотая лестница»
2. Юрий Антонов - «Нет тебя прекрасней»
3. Юрий Антонов - «Не забывай»
4. Boney M - «Rasputin»
5. Boney M - «Daddy Cool»
6. Boney M - «Sunny»
7. Дмитрий Маликов - «До завтра»
8. Dschinghis Khan - «Dschinghis Khan»
9. Dschinghis Khan - «Moskau»
10. Андрей Державин и группа Сталкер - «Не плачь, Алиса»
11. C.C.Catch - «I Can Lose My Heart tonight»
12. C.C.Catch - «Heaven and Hell»
13. C.C.Catch - «Strangers by Night»
14. Кар-Мэн - «Бомбей-буги»
15. Кар-Мэн - «Сан-Франциско»
16. F.R.David - «Girl»
17. F.R.David - «Words»
18. Чайф - «Аргентина-Ямайка 5:0»
19. Чайф - «Оранжевое настроение»
20. Чайф - «17 лет»
21. Gazebo - «I like Chopin»
22. Riccardo Fogli - «Malinconia»
23. Riccardo Fogli - «Storie di tutti i giorni»
24. Анжелика Варум - «Good bye, мой мальчик»
25. Анжелика Варум - «Зимняя вишня»
26. Secret Service - «Flash in the night»
27. Secret Service - «Ten O`Clock Postman»
28. Виктор Салтыков - «Белая ночь»
29. Savage - «Only You»
30. Savage - «Goodbye»
31. Земляне - «Попурри»
32. Thomas Anders - «Brother Louie»
33. Thomas Anders - «Cheri Cheri Lady»
34. Thomas Anders - «Win the Race»
35. Thomas Anders - «You`re My Heart You`re My Soul»



[+] MedaInfo
Diskoteka_80_2019.01.02 .mkv
Format                                   : Matroska
Format version                           : Version 4 / Version 2
File size                                : 4.24 GiB
Duration                                 : 2 h 23 min
Overall bit rate                         : 4 218 kb/s
Movie name                               : Дискотека 80-х 2019.01.02
Encoded date                             : UTC 2019-01-05 03:16:56
Writing application                      : mkvmerge v24.0.0 ('Beyond The Pale') 64-bit
Writing library                          : libebml v1.3.6 + libmatroska v1.4.9 / Lavf58.20.100
DIRECTOR                                 : rutor.info

Video
ID                                       : 1
Format                                   : HEVC
Format/Info                              : High Efficiency Video Coding
Format profile                           : Main@L4@Main
Codec ID                                 : V_MPEGH/ISO/HEVC
Duration                                 : 2 h 23 min
Bit rate                                 : 3 832 kb/s
Width                                    : 1 920 pixels
Height                                   : 1 080 pixels
Display aspect ratio                     : 16:9
Frame rate mode                          : Constant
Frame rate                               : 25.000 FPS
Color space                              : YUV
Chroma subsampling                       : 4:2:0
Bit depth                                : 8 bits
Bits/(Pixel*Frame)                       : 0.074
Stream size                              : 3.85 GiB (91%)
Writing library                          : x265 2.9:[Linux][GCC 7.3.0][64 bit] 8bit+10bit+12bit
Encoding settings                        : cpuid=1064959 / frame-threads=2 / wpp / no-pmode / no-pme / no-psnr / no-ssim / log-level=2 / input-csp=1 / input-res=1920x1080 / interlace=0 / total-frames=0 / level-idc=0 / high-tier=1 / uhd-bd=0 / ref=2 / no-allow-non-conformance / no-repeat-headers / annexb / no-aud / no-hrd / info / hash=0 / no-temporal-layers / open-gop / min-keyint=25 / keyint=250 / gop-lookahead=0 / bframes=4 / b-adapt=0 / b-pyramid / bframe-bias=0 / rc-lookahead=15 / lookahead-slices=6 / scenecut=40 / radl=0 / no-intra-refresh / ctu=64 / min-cu-size=8 / no-rect / no-amp / max-tu-size=32 / tu-inter-depth=1 / tu-intra-depth=1 / limit-tu=0 / rdoq-level=0 / dynamic-rd=0,00 / no-ssim-rd / signhide / no-tskip / nr-intra=0 / nr-inter=0 / no-constrained-intra / strong-intra-smoothing / max-merge=2 / limit-refs=3 / no-limit-modes / me=1 / subme=1 / merange=57 / temporal-mvp / weightp / no-weightb / no-analyze-src-pics / deblock=0:0 / sao / no-sao-non-deblock / rd=2 / early-skip / rskip / fast-intra / no-tskip-fast / no-cu-lossless / no-b-intra / no-splitrd-skip / rdpenalty=0 / psy-rd=2,00 / psy-rdoq=0,00 / no-rd-refine / no-lossless / cbqpoffs=0 / crqpoffs=0 / rc=abr / bitrate=3800 / qcomp=0,60 / qpstep=4 / stats-write=0 / stats-read=0 / ipratio=1,40 / pbratio=1,30 / aq-mode=1 / aq-strength=1,00 / cutree / zone-count=0 / no-strict-cbr / qg-size=32 / no-rc-grain / qpmax=69 / qpmin=0 / no-const-vbv / sar=1 / overscan=0 / videoformat=5 / range=0 / colorprim=1 / transfer=1 / colormatrix=1 / chromaloc=0 / display-window=0 / max-cll=0,0 / min-luma=0 / max-luma=255 / log2-max-poc-lsb=8 / vui-timing-info / vui-hrd-info / slices=1 / no-opt-qp-pps / no-opt-ref-list-length-pps / no-multi-pass-opt-rps / scenecut-bias=0,05 / no-opt-cu-delta-qp / no-aq-motion / no-hdr / no-hdr-opt / no-dhdr10-opt / no-idr-recovery-sei / analysis-reuse-level=5 / scale-factor=0 / refine-intra=0 / refine-inter=0 / refine-mv=0 / no-limit-sao / ctu-info=0 / no-lowpass-dct / refine-mv-type=0 / copy-pic=1 / max-ausize-factor=1,0 / no-dynamic-refine / no-single-sei
Default                                  : Yes
Forced                                   : No
Color range                              : Limited
Color primaries                          : BT.709
Transfer characteristics                 : BT.709
Matrix coefficients                      : BT.709

Audio
ID                                       : 2
Format                                   : AC-3
Format/Info                              : Audio Coding 3
Codec ID                                 : A_AC3
Duration                                 : 2 h 23 min
Bit rate mode                            : Constant
Bit rate                                 : 384 kb/s
Channel(s)                               : 2 channels
Channel positions                        : Front: L R
Sampling rate                            : 48.0 kHz
Frame rate                               : 31.250 FPS (1536 SPF)
Bit depth                                : 16 bits
Compression mode                         : Lossy
Stream size                              : 395 MiB (9%)
Service kind                             : Complete Main
Default                                  : Yes
Forced                                   : No



Скриншоты:
[+] Всего файлов в раздаче - 1:
Diskoteka_80_2019.01.02 .mkv4.24 GB

Текущая раздача:
ДатаКомментарии    РазмерПиры
2019-01-05 U Дискотека 80-х Авторадио [02.01] (2019) HDTVRip-HEVC 1080p 4.24 GB ↑ 54 ↓ 51

Показать еще раздачи по запросу дискотека:
2018-12-27 U VA - Лучшая дискотека 80/90. Зарубежный выпуск (2018) MP3 924.10 MB ↑ 139 ↓ 55
2018-12-26 U VA - Новогодняя Дискотека Руки Вверх (2019) MP3 180.00 MB ↑ 146 ↓ 22
2018-12-25 U Сборник - Дискотека "Белые розы" в обработке DJ (2010) MP3 850.52 MB ↑ 330 ↓ 117
2018-12-09 U Дискотека 80-х Авторадио 2018 (2018) WEB-DL 720p 3.34 GB ↑ 138 ↓ 159
2018-11-07 U VA - Дискотека 80-90-х годов по-новому [48] (2018) MP3 от Виталия 72 656.19 MB ↑ 164 ↓ 67
2018-10-27 U VA - Дискотека по-заявкам: Зарубежный выпуск 5 (2018) MP3 841.89 MB ↑ 183 ↓ 37
2018-10-07 U VA - Дискотека по-заявкам. Русский выпуск 4 (2018) MP3 791.38 MB ↑ 302 ↓ 63

Отзывы
Зарегистрируйтесь чтобы добавить комментарий.
Обратная связь
Copyleft ©