↑↓Torrent.by
Поиск
Логин: Регистрация
Пароль: Восстановить пароль
Загрузка...

Мюнхенский сговор. Приглашение в ад (2018) WEB-DL 720p

Скачать myunhenskiy-sgovor-priglashenie-v-ad-2018-web-dl-720p.torrent
U Магнитная ссылка Размер: 603.05 MB Раздают: 75 Качают: 12 Добавлен: 2019-01-06 07:14:26
Мюнхенский сговор. Приглашение в ад (2018) WEB-DL 720p

Название: Мюнхенский сговор. Приглашение в ад
Год выхода: 2018
Жанр: История, Военный, Документальный
Режиссер: Алексей Денисов

О фильме:
30 сентября 1938 года в Мюнхене произошло подписание документов, которые разрушили весь мировой порядок и ввергли человечество в самую страшную войну. Поздней ночью после коротких переговоров лидеры Великобритании, Франции и Италии подписали соглашение с Гитлером о передаче Судетской области Чехословакии в состав Германии. Чехословакия потеряла треть своей территории и населения, почти всю тяжелую промышленность. Сговор англо-французских политиков окончательно развязал руки Гитлеру.

Страна: Россия
Студия: Град
Продолжительность: 00:43:52

Файл
Кодек: H.264
Качество: WEB-DL 720p
Видео: 1280x720 (16:9), 25,000 fps, 1791 Kbps
Звук: AAC LC, 48 KHz, 2 ch, 128 Kbps
[+] MediaInfo

Общее
Полное имя                               : D:Mjunhenskij_sgovor._Priglashenie_v_ad.2018.WEB-DL.720p.mp4
Формат                                   : MPEG-4
Идентификатор кодека                     : M4V
Размер файла                             : 603 Мбайт
Продолжительность                        : 43 м.
Режим общего битрейта                    : Переменный
Общий поток                              : 1922 Кбит/сек
Дата кодирования                         : UTC 2018-10-01 00:15:32
Дата пометки                             : UTC 2018-10-01 00:15:32

Видео
Идентификатор                            : 1
Формат                                   : AVC
Формат/Информация                        : Advanced Video Codec
Профиль формата                          : High@L3.1
Параметр CABAC формата                   : Да
Параметр ReFrames формата                : 2 кадра
Параметр GOP формата                     : M=3, N=60
Идентификатор кодека                     : avc1
Идентификатор кодека/Информация          : Advanced Video Coding
Продолжительность                        : 43 м.
Вид битрейта                             : Переменный
Битрейт                                  : 1791 Кбит/сек
Максимальный битрейт                     : 2400 Кбит/сек
Ширина                                   : 1280 пикселей
Высота                                   : 720 пикселей
Соотношение сторон                       : 16:9
Режим частоты кадров                     : Постоянный
Частота кадров                           : 25,000 кадров/сек
Цветовое пространство                    : YUV
Субдискретизация насыщенности            : 4:2:0
Битовая глубина                          : 8 бит
Тип развёртки                            : Прогрессивная
Бит/(Пиксели*Кадры)                      : 0.078
Размер потока                            : 562 Мбайт (93%)
Дата кодирования                         : UTC 2018-10-01 00:15:32
Дата пометки                             : UTC 2018-10-01 00:15:32

Аудио
Идентификатор                            : 2
Формат                                   : AAC
Формат/Информация                        : Advanced Audio Codec
Профиль формата                          : LC
Идентификатор кодека                     : 40
Продолжительность                        : 43 м.
Вид битрейта                             : Постоянный
Битрейт                                  : 128 Кбит/сек
Каналы                                   : 2 канала
Расположение каналов                     : Front: L R
Частота                                  : 48,0 КГц
Метод сжатия                             : С потерями
Размер потока                            : 39,4 Мбайт (7%)
Дата кодирования                         : UTC 2018-10-01 00:15:32
Дата пометки                             : UTC 2018-10-01 00:15:32




Скриншоты:
[+] Всего файлов в раздаче - 1:
Mjunhenskij_sgovor._Priglashenie_v_ad.2018.WEB-DL.720p.mp4603.05 MB

Отзывы
Зарегистрируйтесь чтобы добавить комментарий.
Обратная связь
Copyleft ©