↑↓Torrent.by
Поиск
Логин: Регистрация
Пароль: Восстановить пароль
Загрузка...

Вторая первая любовь [01-04 из 04] (2018) WEB-DLRip от Files-x

Скачать vtoraya-pervaya-lyubov-01-04-iz-2018-web-dlrip-ot-files-x.torrent
U Магнитная ссылка Размер: 2.42 GB Раздают: 81 Качают: 47 Добавлен: 2019-01-06 07:15:02
Вторая первая любовь  [01-04 из 04]  (2018) WEB-DLRip  от Files-x

Оригинальное название: Вторая первая любовь
Год выпуска: 2018
Жанр:  Детектив, мелодрама
Режиссер: Максим Демченко
В ролях: Соня Присс, Владимир Петров, Олег Гаас, Оксана Базилевич, Наталья Ткаченко, Константин Воробьёв, Филипп Азаров, Кира Кауфман, Степан Бекетов

О фильме: Аля живет в небольшом приморском городке. Ее возлюбленный Иван, сын рыбака, очень не нравится ее матери, к тому же, за Алей ухаживает завидный жених – архитектор Толя Кунцев, сын главы администрации города. Однако деваться некуда: Аля уже беременна от Ивана. Влюбленные женятся, но той же ночью Иван пропадает, а утром его тело находят на сгоревшем складе. Воспользовавшись ситуацией, мать достает для Али паспорт без отметки о браке. Аля скрывает беременность и уезжает рожать в деревню. После тяжелых родов ей сообщают о смерти сына. Убитая горем, потеряв и мужа, и ребенка, она возвращается в город и в конце концов соглашается выйти замуж за Толю – без любви.

Выпущено: Россия
Студия: ПРИОР Продакшн,Green-Film
Продолжительность: 4 x ~ 00:49:00
Перевод: Не требуется

Файл
Качество: WEB-DLRip
Видео: XviD, 1600 Кбит/с, 720x400
Аудио: AC3, 2 ch, 192 Кбит/с

Релиз:


[+] MediaInfo
General
Complete name                    : C: Вторая первая любовь.  (2018). WEB-DLRip. Files-x1. Вторая первая любовь. (2018).WEB-DLRip. Files-x.avi
Format                           : AVI
Format/Info                      : Audio Video Interleave
File size                        : 632 MiB
Duration                         : 49mn 0s
Overall bit rate                 : 1 803 Kbps
Writing application              : VirtualDubMod 1.5.10.3 | www.virtualdub-fr.org || (build 2550/release)
Writing library                  : VirtualDubMod build 2550/release

Video
ID                               : 0
Format                           : MPEG-4 Visual
Format profile                   : Advanced Simple@L5
Format settings, BVOP            : 1
Format settings, QPel            : No
Format settings, GMC             : No warppoints
Format settings, Matrix          : Custom
Codec ID                         : XVID
Codec ID/Hint                    : XviD
Duration                         : 49mn 0s
Bit rate                         : 1 601 Kbps
Width                            : 720 pixels
Height                           : 400 pixels
Display aspect ratio             : 16:9
Frame rate                       : 25.000 fps
Color space                      : YUV
Chroma subsampling               : 4:2:0
Bit depth                        : 8 bits
Scan type                        : Progressive
Compression mode                 : Lossy
Bits/(Pixel*Frame)               : 0.222
Stream size                      : 561 MiB (89%)
Writing library                  : XviD 73

Audio
ID                               : 1
Format                           : AC-3
Format/Info                      : Audio Coding 3
Mode extension                   : CM (complete main)
Codec ID                         : 2000
Duration                         : 49mn 0s
Bit rate mode                    : Constant
Bit rate                         : 192 Kbps
Channel(s)                       : 2 channels
Channel positions                : Front: L R
Sampling rate                    : 48.0 KHz
Bit depth                        : 16 bits
Compression mode                 : Lossy
Stream size                      : 67.3 MiB (11%)
Alignment                        : Split accross interleaves
Interleave, duration             : 40 ms (1.00 video frame)
Interleave, preload duration     : 500 ms



Скриншоты:
[+] Всего файлов в раздаче - 4:
01. Вторая первая любовь. (2018).WEB-DLRip. Files-x.avi631.80 MB
02. Вторая первая любовь. (2018).WEB-DLRip. Files-x.avi623.00 MB
03. Вторая первая любовь. (2018).WEB-DLRip. Files-x.avi610.47 MB
04. Вторая первая любовь. (2018).WEB-DLRip. Files-x.avi609.86 MB

Текущая раздача:
ДатаКомментарии    РазмерПиры
2019-01-06 U Вторая первая любовь [01-04 из 04] (2018) WEB-DLRip от Files-x 2.42 GB ↑ 81 ↓ 47

Показать еще раздачи по запросу вторая:
2019-01-07 U Вторая первая любовь [01-04 из 04] (2018) WEB-DLRip-AVC от Files-x 2.40 GB ↑ 46 ↓ 15
2019-01-06 U Вторая первая любовь [01-04 из 04] (2018) WEB-DL 720p от Files-x 3.68 GB ↑ 60 ↓ 26
2019-01-05 U Вторая первая любовь [01-04 из 04] (2018) SATRip 2.44 GB ↑ 174 ↓ 148
2019-01-05 U Вторая первая любовь [01-04 из 04] (2018) SATRip-AVC 2.49 GB ↑ 10 ↓ 5
2018-10-21 U КВН-2018. Высшая лига. 1/2 финала. Игра вторая [21.10] (2018) HDTV 1080i от GeneralFilm 10.72 GB ↑ 178 ↓ 133
2018-10-21 U КВН-2018. Высшая лига. 1/2 финала. Игра вторая [21.10] (2018) HDTVRip от GeneralFilm 1К1.66 GB ↑ 562 ↓ 264
2018-09-09 U КВН-2018. Премьер-лига. 1/2 финала. Игра вторая [08.09] (2018) HDTV 1080i от GeneralFilm 5.50 GB ↑ 166 ↓ 69

Отзывы
Зарегистрируйтесь чтобы добавить комментарий.
Обратная связь
Copyleft ©