↑↓Torrent.by
Поиск
Логин: Регистрация
Пароль: Восстановить пароль
Загрузка...

Хэллоуин / Halloween (2018) BDRip 720p от селезень | iTunes

Скачать hellouin-halloween-2018-bdrip-720p-ot-selezen-itunes.torrent
U Магнитная ссылка Размер: 5.58 GB Раздают: 219 Качают: 145 Добавлен: 2019-01-06 13:24:45
Хэллоуин / Halloween (2018) BDRip 720p от селезень | iTunes

Название: Хэллоуин
Оригинальное название: Halloween
Год выхода: 2018
Жанр: Ужасы, триллер
Режиссер: Дэвид Гордон Грин
В ролях: Джейми Ли Кёртис, Джуди Грир, Энди Мэтичак, Джеймс Джуд Кортни, Ник Касл, Халук Бильгинер, Уилл Пэттон, Риан Риис, Джефферсон Холл, Тоби Хасс

О фильме: Зло неизменно возвращается, и им нельзя управлять. Его можно временно уничтожить, застрелить, сжечь, но вернется оно всё равно неизбежно. Майкл Майерс не закончил свое дело в Хэддонфилде, и скоро он вернётся домой, чтобы снова убивать.

Страна: США
Студия: Blumhouse Productions, Miramax, Rough House Pictures
Продолжительность: 01:45:47
Перевод: Дублированный | iTunes

Качество: BDRip 720p
Видео: MPEG-4 AVC, 1280x536, 5661 Kbit/s, 23.976 fps
Звук:
Аудио #01: 48 kHz, AC3, 5.1, 384 Kbps | iTunes | RUS |
Аудио #02: 48 kHz, DTS, 5.1, 1510 Kbps | Оригинал |  ENG |
Субтитры: Английские

Релиз:


[+] MI
General
Unique ID                   : 235556248389125381520039275252073315286 (0xB1367BB55AF9DF1FC59669F4B48B3BD6)
Complete name               : D:Video111Halloween.2018.BDRip.720p.seleZen.mkv
Format                      : Matroska
Format version              : Version 4
File size                   : 5.58 GiB
Duration                    : 1 h 45 min
Overall bit rate            : 7 556 kb/s
Movie name                  : Halloween 2018 from селезень
Encoded date                : UTC 2019-01-06 01:57:34
Writing application         : mkvmerge v29.0.0 ('Like It Or Not') 64-bit
Writing library             : libebml v1.3.6 + libmatroska v1.4.9

Video
ID                          : 1
Format                      : AVC
Format/Info                 : Advanced Video Codec
Format profile              : High@L4.1
Format settings             : CABAC / 12 Ref Frames
Format settings, CABAC      : Yes
Format settings, ReFrames   : 12 frames
Codec ID                    : V_MPEG4/ISO/AVC
Duration                    : 1 h 45 min
Bit rate                    : 5 661 kb/s
Width                       : 1 280 pixels
Height                      : 536 pixels
Display aspect ratio        : 2.40:1
Frame rate mode             : Constant
Frame rate                  : 23.976 (24000/1001) FPS
Color space                 : YUV
Chroma subsampling          : 4:2:0
Bit depth                   : 8 bits
Scan type                   : Progressive
Bits/(Pixel*Frame)          : 0.344
Stream size                 : 4.18 GiB (75%)
Title                       : CHD
Writing library             : x264 core 155 r2901 7d0ff22
Encoding settings           : cabac=1 / ref=12 / deblock=1:-3:-3 / analyse=0x3:0x113 / me=umh / subme=10 / psy=1 / psy_rd=1.00:0.05 / mixed_ref=1 / me_range=32 / chroma_me=1 / trellis=2 / 8x8dct=1 / cqm=0 / deadzone=21,11 / fast_pskip=0 / chroma_qp_offset=-2 / threads=17 / lookahead_threads=2 / sliced_threads=0 / nr=0 / decimate=1 / interlaced=0 / bluray_compat=0 / constrained_intra=0 / bframes=8 / b_pyramid=2 / b_adapt=2 / b_bias=0 / direct=3 / weightb=1 / open_gop=0 / weightp=2 / keyint=250 / keyint_min=23 / scenecut=40 / intra_refresh=0 / rc_lookahead=40 / rc=crf / mbtree=0 / crf=17.0 / qcomp=0.60 / qpmin=0 / qpmax=69 / qpstep=4 / vbv_maxrate=30000 / vbv_bufsize=30000 / crf_max=0.0 / nal_hrd=none / filler=0 / ip_ratio=1.40 / pb_ratio=1.30 / aq=3:1.00
Language                    : English
Default                     : Yes
Forced                      : No
Color range                 : Limited
Matrix coefficients         : BT.709

Audio #1
ID                          : 2
Format                      : AC-3
Format/Info                 : Audio Coding 3
Commercial name             : Dolby Digital
Codec ID                    : A_AC3
Duration                    : 1 h 45 min
Bit rate mode               : Constant
Bit rate                    : 384 kb/s
Channel(s)                  : 6 channels
Channel layout              : L R C LFE Ls Rs
Sampling rate               : 48.0 kHz
Frame rate                  : 31.250 FPS (1536 SPF)
Bit depth                   : 16 bits
Compression mode            : Lossy
Stream size                 : 291 MiB (5%)
Title                       : iTunes
Language                    : Russian
Service kind                : Complete Main
Default                     : Yes
Forced                      : Yes

Audio #2
ID                          : 3
Format                      : DTS
Format/Info                 : Digital Theater Systems
Codec ID                    : A_DTS
Duration                    : 1 h 45 min
Bit rate mode               : Constant
Bit rate                    : 1 509 kb/s
Channel(s)                  : 6 channels
Channel layout              : C L R Ls Rs LFE
Sampling rate               : 48.0 kHz
Frame rate                  : 93.750 FPS (512 SPF)
Bit depth                   : 24 bits
Compression mode            : Lossy
Stream size                 : 1.12 GiB (20%)
Title                       : Original
Language                    : English
Default                     : No
Forced                      : No

Text
ID                          : 4
Format                      : UTF-8
Codec ID                    : S_TEXT/UTF8
Codec ID/Info               : UTF-8 Plain Text
Duration                    : 1 h 38 min
Bit rate                    : 54 b/s
Count of elements           : 1181
Stream size                 : 39.4 KiB (0%)
Title                       : Full
Language                    : English
Default                     : No
Forced                      : No

Menu
00:00:00.000                : en:00:00:00.000
00:08:42.522                : en:00:08:42.522
00:14:26.949                : en:00:14:26.949
00:20:46.996                : en:00:20:46.996
00:23:17.855                : en:00:23:17.855
00:27:45.080                : en:00:27:45.080
00:32:55.724                : en:00:32:55.724
00:40:51.366                : en:00:40:51.366
00:44:41.053                : en:00:44:41.053
00:48:26.403                : en:00:48:26.403
00:53:26.453                : en:00:53:26.453
00:59:18.597                : en:00:59:18.597
01:03:22.340                : en:01:03:22.340
01:07:29.629                : en:01:07:29.629
01:14:46.524                : en:01:14:46.524
01:18:10.561                : en:01:18:10.561
01:22:04.837                : en:01:22:04.837
01:30:09.904                : en:01:30:09.904
01:35:33.394                : en:01:35:33.394
01:40:41.494                : en:01:40:41.494



Скриншоты:
[+] Всего файлов в раздаче - 1:
Halloween.2018.BDRip.720p.seleZen.mkv5.58 GB

Текущая раздача:
ДатаКомментарии    РазмерПиры
2019-01-06 U Хэллоуин / Halloween (2018) BDRip 720p от селезень | iTunes 5.58 GB ↑ 219 ↓ 145

Показать еще раздачи по запросу хэллоуин:
Вчера U Хэллоуин у тети Этель / Halloween at Aunt Ethel's (2018) WEBRip | L2 1.09 GB ↑ 24 ↓ 8
2019-01-22 U Хэллоуин у тети Этель / Halloween at Aunt Ethel's (2018) WEBRip 720p | L2 1.63 GB ↑ 98 ↓ 19
2019-01-13 U Хэллоуин / Halloween (2018) BDRip от ExKinoRay | iTunes 1.41 GB ↑ 49 ↓ 5
2019-01-12 U Хэллоуин / Halloween (2018) BDRip-AVC от OlLanDGroup | iTunes 1К1.94 GB ↑ 48 ↓ 3
2019-01-09 U Хэллоуин / Halloween (2018) HDRip от Scarabey | iTunes 1.40 GB ↑ 39 ↓ 3
2019-01-07 U Хэллоуин / Halloween (2018) HDRip от MegaPeer | iTunes 1.46 GB ↑ 231 ↓ 29
2019-01-06 U Хэллоуин / Halloween (2018) BDRip 1080p от селезень | iTunes 1К10.48 GB ↑ 169 ↓ 151

Отзывы
Зарегистрируйтесь чтобы добавить комментарий.
Обратная связь
Copyleft ©