↑↓Torrent.by
Поиск
Логин: Регистрация
Пароль: Восстановить пароль
Загрузка...

Меняющий жизнь / Lifechanger (2018) WEBRip 720p | L2

Скачать menyayuschiy-zhizn-lifechanger-2018-webrip-720p-l2.torrent
U Магнитная ссылка Размер: 1.77 GB Раздают: 126 Качают: 52 Добавлен: 2019-01-06 13:25:04
Меняющий жизнь / Lifechanger (2018) WEBRip 720p | L2

Название: Меняющий жизнь
Оригинальное название: Lifechanger

Год выхода: 2018
Жанр: Ужасы, триллер
Режиссер: Джастин МакКоннелл
В ролях: Лора Бурк, Джек Фоли, Элица Бако, Рэйчел ВанДузер, Стив Касан, Сэм Уайт, Билл Оберст мл., Питер Хиггинсон, Адам Буллер, Брайан Куинтеро
О фильме:
Дрю - оборотень, который вынужден поглощать тела людей, принимая их облик, чтобы не погибнуть мучительной смертью. Но в большом городе незаметно находить новых жертв не так то и просто. Однажды он влюбляется в женщину, мужа которой поглотил, и оказывается перед нелёгким выбором: обречь её на вечные муки потери любимого человека или признаться в своей ужасающей сущности.

Страна: Канада, 9 Light Entertainment, Federgreen Entertainment, Unstable Ground Productions
Продолжительность: 01:24:25
Перевод: Любительский (двухголосый закадровый) | HiWay Grope

Файл
Кодек: MPEG-4 AVC/x.264
Качество: WEBRip 720p
Видео: 1280x534, 23.976 fps, ~2619 kbps, 0.160 bit/pixel
Звук:
Аудио rus: AC3, 48 kHz, 6 ch, 384 Kbps
Субтитры: отсутствуют

Реклама: присутствует

Семпл

Релиз от: HiWay Grope


[+] MediaInfo:

General
Unique ID                                : 56931146624094064158424170292851655912 (0x2AD48A3DC7485C90998F8D28636A44E8)
Complete name                            : D:Lifechanger.2018.720p.WEBRip.HiWayGropeLifechanger.2018.720p.WEBRip.HiWayGrope.mkv
Format                                   : Matroska
Format version                           : Version 4
File size                                : 1.77 GiB
Duration                                 : 1 h 24 min
Overall bit rate                         : 3 004 kb/s
Encoded date                             : UTC 2019-01-05 15:45:13
Writing application                      : mkvmerge v30.0.0 ('Interstellar') 64-bit
Writing library                          : libebml v1.3.6 + libmatroska v1.4.9

Video
ID                                       : 1
Format                                   : AVC
Format/Info                              : Advanced Video Codec
Format profile                           : Main@L3.1
Format settings                          : CABAC / 4 Ref Frames
Format settings, CABAC                   : Yes
Format settings, RefFrames               : 4 frames
Codec ID                                 : V_MPEG4/ISO/AVC
Duration                                 : 1 h 24 min
Bit rate                                 : 2 619 kb/s
Width                                    : 1 280 pixels
Height                                   : 534 pixels
Display aspect ratio                     : 2.40:1
Frame rate mode                          : Constant
Frame rate                               : 23.976 (24000/1001) FPS
Standard                                 : NTSC
Color space                              : YUV
Chroma subsampling                       : 4:2:0
Bit depth                                : 8 bits
Scan type                                : Progressive
Bits/(Pixel*Frame)                       : 0.160
Stream size                              : 1.54 GiB (87%)
Language                                 : English
Default                                  : Yes
Forced                                   : No
Color range                              : Limited
Color primaries                          : BT.601 NTSC
Transfer characteristics                 : BT.601
Matrix coefficients                      : BT.601

Audio
ID                                       : 2
Format                                   : AC-3
Format/Info                              : Audio Coding 3
Commercial name                          : Dolby Digital
Codec ID                                 : A_AC3
Duration                                 : 1 h 24 min
Bit rate mode                            : Constant
Bit rate                                 : 384 kb/s
Channel(s)                               : 6 channels
Channel layout                           : L R C LFE Ls Rs
Sampling rate                            : 48.0 kHz
Frame rate                               : 31.250 FPS (1536 SPF)
Bit depth                                : 16 bits
Compression mode                         : Lossy
Stream size                              : 232 MiB (13%)
Language                                 : Russian
Service kind                             : Complete Main
Default                                  : Yes
Forced                                   : No




Скриншоты:
[+] Всего файлов в раздаче - 1:
Lifechanger.2018.720p.WEBRip.HiWayGrope.mkv1.77 GB

Текущая раздача:
ДатаКомментарии    РазмерПиры
2019-01-06 U Меняющий жизнь / Lifechanger (2018) WEBRip 720p | L2 1 К 1.77 GB ↑ 126 ↓ 52

Похожие раздачи по запросу - меняющий:
2019-01-06 U Меняющий жизнь / Lifechanger (2018) WEBRip | L2 1.07 GB ↑ 52 ↓ 17
2018-03-10 U Джордж Массер - Нелокальность: Феномен, меняющий представление о пространстве и времени (2018) FB2 3.46 MB ↑ 227 ↓ 7

Отзывы
eliash
Хех, интересно наблюдать, как автор Джастин МакКоннелл шел к успеху, сначала снял фильм на 3.6 балла (первая полнометражка не в счет, её видело два с половиной человека, хотя она, должно быть, крута), потом уже на 4.2 и вот наконец и до 5.3 дело дошло, при этом вполне заслуженно. Хотя ничего не предвещало такого расклада, сюжет со злой сучностью, которая меняет тела людей, далеко не нов и как только не обыгрывался, но внезапно автор догадался накрутить эту линию вокруг лирической мелодрамы (что тоже не ново), в итоге получился такой мелодраматический триллер со жмурьем и кровищей, из-за которых его при большом воображении можно принять за хоррор, но нет, походу именно любители хоррора кино и заминусовали. Самое главное в фильме есть смысл и цель, хоть и не самые высокие, но они делают сюжет последовательным и более или менее логичным, пусть и предсказуемым, а благодаря этому и сценарий получается доходчивым, и актеры играют нормально, хотя часть из них вообще дебютанты, и история развивается, и атмосфера образуется, хотя и не совсем триллерная, но все же. Снято кино в общем средненько, визуально ничего интересного нет (симпатичные девки относятся к визуалу?), малобюджетность сказывается, динамика тоже средняя, при этом картинка живая, хотя и блеклая, звук норм. Качество хорошее, перевод и озвучка без проблем.
На канадцев иногда находит и они выпекают приличное кино, поживее бы, подраматичнее да получше срежиссировать все это дело, можно было 6 ставить даже при отсутствии визуальных красот, а так атмосферы все же не хватает. Но если нужен неплохой меланхолично-романтический триллерок, то вот он, вполне можно посмотреть.

Зарегистрируйтесь чтобы добавить комментарий.
Обратная связь
Copyleft ©