↑↓Torrent.by
Поиск
Логин: Регистрация
Пароль: Восстановить пароль
Загрузка...

Жаркие летние ночи / Hot Summer Nights Goats (2017) WEB-DL 1080p | P | iTunes

Скачать zharkie-letnie-nochi-hot-summer-nights-goats-2017-web-dl-1080p-p-itunes.torrent
U Магнитная ссылка Размер: 6.12 GB Раздают: 67 Качают: 41 Добавлен: 2019-01-06 14:22:39
Жаркие летние ночи / Hot Summer Nights Goats (2017) WEB-DL 1080p | P | iTunes

Название: Жаркие летние ночи
Оригинальное название: Hot Summer Nights
Год выпуска: 2017
Жанр: драма, мелодрама, комедия, криминал
Режиссер: Элайджа Байнум
В ролях: Тимоти Шаламе, Майка Монро, Алекс Роу, Эмори Коэн, Томас Джейн, Майя Митчелл, Уильям Фихтнер, Джанин Серраллес, Риз Эннис, Джек Кеси, Томас Блейк, Алекс Биглейн, Ребекка Коон, Брайан Курландер, Ребекка Вейл, Джесси Эндрюс, Ребекка Рэй, Кэролайн Фридлюнд

О фильме:
Главного героя фильма, юного Дэниэла, отправляют провести летние каникулы к тете на полуостров Кейп-Код, в штате Масссачусетс. Отправляясь туда, парень и представить себе не мог, какие его там ждут приключения. Ничем непримечательный Дэниэл знакомится с местным наркодиллером Хантером и предлагает вывести его бизнес на новый, более денежный, уровень. Также Дэниэл влюбляется в красавицу сестру своего компаньона. В итоге все это приводит к неожиданным последствиям, угрожающим жизни героя.

Страна: США
Студия: Imperative Entertainment
Продолжительность: 01:47:50
Перевод: Профессиональный (многоголосый закадровый)

Файл
Качество: WEB-DL 1080p
Формат: MKV
Видео: 1920x816 at 23.976 fps, MPEG-4 AVC, ~7100 kbps avg
Аудио#1: Russian: 48 kHz, AC3, 2/0 (L,R) ch, ~192.00 kbps avg |Многоголосый закадровый, iTunes - студия Мельница по заказу A-One Films|
Аудио#2: Russian: 48 kHz, AC3, 2/0 (L,R) ch, ~192.00 kbps avg |Многоголосый закадровый, HDRezka Studio|
Аудио#3: English: 48 kHz, EAC3, 3/2 (L,C,R,l,r) + LFE ch, ~640.00 kbps avg
Cубтитры: русские, английские, испанские, итальянские, польские, чешские

Релиз от: ylnian


[+] Доп. информация
• Исходник видео и оригинальной дорожки - Hot.Summer.Nights.2017.1080p.AMZN.WEB-DL.DDP5.1.H.264-NTG
• Исходник русской дорожки - WEB-DL (1080p) iTunes RUS
• Есть главы, подписаны - 19 шт.



[+] MediaInfo
General
Unique ID                   : 40452250196091850503296659788929289370 (0x1E6ED1EB539F973D25D2DE810A01CC9A)
Complete name               : Hot.Summer.Nights.2017.WEBDL.1080p.AMZN-ylnian.mkv
Format                      : Matroska
Format version              : Version 4
File size                   : 6.12 GiB
Duration                    : 1 h 47 min
Overall bit rate            : 8 127 kb/s
Movie name                  : Hot.Summer.Nights.2017.WEBDL.1080p.AMZN-ylnian
Encoded date                : UTC 2018-12-08 17:29:33
Writing application         : mkvmerge v29.0.0 ('Like It Or Not') 64-bit
Writing library             : libebml v1.3.6 + libmatroska v1.4.9

Video
ID                          : 1
Format                      : AVC
Format/Info                 : Advanced Video Codec
Format profile              : High@L4
Format settings             : CABAC / 4 Ref Frames
Format settings, CABAC      : Yes
Format settings, ReFrames   : 4 frames
Codec ID                    : V_MPEG4/ISO/AVC
Duration                    : 1 h 47 min
Bit rate                    : 7 100 kb/s
Width                       : 1 920 pixels
Height                      : 816 pixels
Display aspect ratio        : 2.35:1
Frame rate mode             : Constant
Frame rate                  : 23.976 (24000/1001) FPS
Color space                 : YUV
Chroma subsampling          : 4:2:0
Bit depth                   : 8 bits
Scan type                   : Progressive
Bits/(Pixel*Frame)          : 0.189
Stream size                 : 5.35 GiB (87%)
Title                       : Hot.Summer.Nights.2017.1080p.AMZN.WEB-DL.DDP5.1.H.264-NTG
Language                    : English
Default                     : Yes
Forced                      : Yes
Color range                 : Limited
Color primaries             : BT.709
Transfer characteristics    : BT.709
Matrix coefficients         : BT.709

Audio #1
ID                          : 2
Format                      : AC-3
Format/Info                 : Audio Coding 3
Commercial name             : Dolby Digital
Codec ID                    : A_AC3
Duration                    : 1 h 47 min
Bit rate mode               : Constant
Bit rate                    : 192 kb/s
Channel(s)                  : 2 channels
Channel layout              : L R
Sampling rate               : 48.0 kHz
Frame rate                  : 31.250 FPS (1536 SPF)
Bit depth                   : 16 bits
Compression mode            : Lossy
Stream size                 : 148 MiB (2%)
Title                       : iTunes - студия Мельница
Language                    : Russian
Service kind                : Complete Main
Default                     : Yes
Forced                      : Yes

Audio #2
ID                          : 3
Format                      : AC-3
Format/Info                 : Audio Coding 3
Commercial name             : Dolby Digital
Codec ID                    : A_AC3
Duration                    : 1 h 47 min
Bit rate mode               : Constant
Bit rate                    : 192 kb/s
Channel(s)                  : 2 channels
Channel layout              : L R
Sampling rate               : 48.0 kHz
Frame rate                  : 31.250 FPS (1536 SPF)
Bit depth                   : 16 bits
Compression mode            : Lossy
Stream size                 : 148 MiB (2%)
Title                       : HDRezka Studio
Language                    : Russian
Service kind                : Complete Main
Default                     : No
Forced                      : No

Audio #3
ID                          : 4
Format                      : E-AC-3
Format/Info                 : Enhanced AC-3
Commercial name             : Dolby Digital Plus
Codec ID                    : A_EAC3
Duration                    : 1 h 47 min
Bit rate mode               : Constant
Bit rate                    : 640 kb/s
Channel(s)                  : 6 channels
Channel layout              : L R C LFE Ls Rs
Sampling rate               : 48.0 kHz
Frame rate                  : 31.250 FPS (1536 SPF)
Compression mode            : Lossy
Stream size                 : 494 MiB (8%)
Language                    : English
Service kind                : Complete Main
Default                     : No
Forced                      : No

Text #1
ID                          : 5
Format                      : UTF-8
Codec ID                    : S_TEXT/UTF8
Codec ID/Info               : UTF-8 Plain Text
Duration                    : 1 h 42 min
Bit rate                    : 76 b/s
Count of elements           : 1240
Stream size                 : 57.5 KiB (0%)
Title                       : FOCS
Language                    : Russian
Default                     : No
Forced                      : No

Text #2
ID                          : 6
Format                      : UTF-8
Codec ID                    : S_TEXT/UTF8
Codec ID/Info               : UTF-8 Plain Text
Duration                    : 1 h 42 min
Bit rate                    : 79 b/s
Count of elements           : 1226
Stream size                 : 59.9 KiB (0%)
Title                       : -amely-
Language                    : Russian
Default                     : No
Forced                      : No

Text #3
ID                          : 7
Format                      : UTF-8
Codec ID                    : S_TEXT/UTF8
Codec ID/Info               : UTF-8 Plain Text
Duration                    : 1 h 42 min
Bit rate                    : 52 b/s
Count of elements           : 1436
Stream size                 : 39.5 KiB (0%)
Title                       : SDH
Language                    : English
Default                     : No
Forced                      : No

Text #4
ID                          : 8
Format                      : UTF-8
Codec ID                    : S_TEXT/UTF8
Codec ID/Info               : UTF-8 Plain Text
Duration                    : 1 h 42 min
Bit rate                    : 52 b/s
Count of elements           : 1243
Stream size                 : 39.8 KiB (0%)
Language                    : Spanish
Default                     : No
Forced                      : No

Text #5
ID                          : 9
Format                      : UTF-8
Codec ID                    : S_TEXT/UTF8
Codec ID/Info               : UTF-8 Plain Text
Duration                    : 1 h 42 min
Bit rate                    : 49 b/s
Count of elements           : 1227
Stream size                 : 37.2 KiB (0%)
Language                    : Italian
Default                     : No
Forced                      : No

Text #6
ID                          : 10
Format                      : UTF-8
Codec ID                    : S_TEXT/UTF8
Codec ID/Info               : UTF-8 Plain Text
Duration                    : 1 h 42 min
Bit rate                    : 40 b/s
Count of elements           : 845
Stream size                 : 30.1 KiB (0%)
Language                    : Polish
Default                     : No
Forced                      : No

Text #7
ID                          : 11
Format                      : UTF-8
Codec ID                    : S_TEXT/UTF8
Codec ID/Info               : UTF-8 Plain Text
Duration                    : 1 h 42 min
Bit rate                    : 48 b/s
Count of elements           : 1141
Stream size                 : 36.4 KiB (0%)
Language                    : Czech
Default                     : No
Forced                      : No

Menu
00:00:00.000                : en:Studio Logo
00:00:25.000                : en:Scene 2
00:06:34.000                : en:Scene 3
00:14:41.000                : en:Title Sequence
00:14:53.000                : en:Scene 5
00:23:41.000                : en:Scene 6
00:30:34.000                : en:Scene 7
00:35:50.000                : en:Scene 8
00:44:57.000                : en:Scene 9
00:47:56.000                : en:Scene 10
00:50:54.000                : en:Scene 11
00:58:59.000                : en:Scene 12
01:03:25.000                : en:Scene 13
01:11:37.000                : en:Scene 14
01:17:36.000                : en:Scene 15
01:23:55.000                : en:Scene 16
01:29:55.000                : en:Scene 17
01:39:50.000                : en:Scene 18
01:43:13.000                : en:End Credits



Скриншоты:
[+] Всего файлов в раздаче - 1:
Hot.Summer.Nights.2017.WEBDL.1080p.AMZN-ylnian.mkv6.12 GB

Текущая раздача:
ДатаКомментарии    РазмерПиры
2019-01-06 U Жаркие летние ночи / Hot Summer Nights Goats (2017) WEB-DL 1080p | P | iTunes 6.12 GB ↑ 67 ↓ 41

Похожие раздачи по запросу - жаркие:
2019-01-07 U Жаркие летние ночи / Hot Summer Nights (2017) WEB-DLRip от MegaPeer | P | iTunes 1.46 GB ↑ 55 ↓ 8
2017-07-16 U Сборник - Жаркие хиты летних вечеринок №2 (2017) MP3 799.75 MB ↑ 240 ↓ 99

Отзывы
Зарегистрируйтесь чтобы добавить комментарий.
Обратная связь
Copyleft ©