↑↓Torrent.by
Поиск
Логин: Регистрация
Пароль: Восстановить пароль
Загрузка...

Новогодняя ночь на Первом [01-03 из 03] (2019) HDTVRip от Files-x

Скачать novogodnyaya-noch-na-pervom-01-03-iz-2019-hdtvrip-ot-files-x.torrent
U Магнитная ссылка Размер: 7.16 GB Раздают: 80 Качают: 47 Добавлен: 2019-01-06 15:39:12
Новогодняя ночь на Первом [01-03 из 03] (2019) HDTVRip от Files-x

Название: Новогодняя ночь на Первом
Год выпуска: 2019
Жанр:  ТВ-шоу, концерт

О фильме: Встречайте Новый год и проводите новогодние каникулы вместе с Первым! Зажигательная музыка в исполнении ярких артистов, новогодние выпуски любимых программ, кулинарные и модные советы — все, что нужно для хорошего праздника, вы найдете в этом проекте. Ведущие праздничного вечера – Иван Ургант, Дмитрий Нагиев и Алла Михеева — получат в полное распоряжение двухэтажный туристический автобус, а в шоферы позовут Гарика Сукачева. Веселая компания будет колесить по Москве и отпаивать замерзших шампанским и горячим чаем.

Выпущено: Россия
Студия: Первый канал
Продолжительность: 03:36:40 + 02:50:56 + 01:17:38
Перевод: Не требуется

Файл
Качество: HDTVRip
Видео: XviD, ~ 1999 Кбит/с, 720x400
Аудио: AC3, 2 ch 192 Кбит/с

Релиз:
[+] MediaInfo

General
Complete name                    : C:0Новогодняя ночь на Первом2019.01.012.Новогодняя ночь на Первом 2018-2019. HDTVRip.Files-x.avi
Format                           : AVI
Format/Info                      : Audio Video Interleave
Format profile                   : OpenDML
File size                        : 2.63 GiB
Duration                         : 2h 50mn
Overall bit rate                 : 2 203 Kbps
Writing application              : VirtualDubMod 1.5.10.3 | www.virtualdub-fr.org || (build 2550/release)
Writing library                  : VirtualDubMod build 2550/release

Video
ID                               : 0
Format                           : MPEG-4 Visual
Format profile                   : Advanced Simple@L5
Format settings, BVOP            : 1
Format settings, QPel            : No
Format settings, GMC             : No warppoints
Format settings, Matrix          : Custom
Codec ID                         : XVID
Codec ID/Hint                    : XviD
Duration                         : 2h 50mn
Bit rate                         : 1 999 Kbps
Width                            : 720 pixels
Height                           : 400 pixels
Display aspect ratio             : 16:9
Frame rate                       : 25.000 fps
Color space                      : YUV
Chroma subsampling               : 4:2:0
Bit depth                        : 8 bits
Scan type                        : Progressive
Compression mode                 : Lossy
Bits/(Pixel*Frame)               : 0.278
Stream size                      : 2.39 GiB (91%)
Writing library                  : XviD 1.2.1 (UTC 2008-12-04)

Audio
ID                               : 1
Format                           : AC-3
Format/Info                      : Audio Coding 3
Mode extension                   : CM (complete main)
Codec ID                         : 2000
Duration                         : 2h 50mn
Bit rate mode                    : Constant
Bit rate                         : 192 Kbps
Channel(s)                       : 2 channels
Channel positions                : Front: L R
Sampling rate                    : 48.0 KHz
Bit depth                        : 16 bits
Compression mode                 : Lossy
Stream size                      : 235 MiB (9%)
Alignment                        : Split accross interleaves
Interleave, duration             : 40 ms (1.00 video frame)
Interleave, preload duration     : 500 ms



Скриншоты:
[+] Всего файлов в раздаче - 3:
01.Новогодняя ночь на Первом 2018-2019. HDTVRip.Files-x.avi3.33 GB
02.Новогодняя ночь на Первом 2018-2019. HDTVRip.Files-x.avi2.63 GB
03. Красная площадь 2018.HDTVRip.Files-x.avi1.19 GB

Текущая раздача:
ДатаКомментарии    РазмерПиры
2019-01-06 U Новогодняя ночь на Первом [01-03 из 03] (2019) HDTVRip от Files-x 1 К 7.16 GB ↑ 80 ↓ 47

Показать еще раздачи по запросу новогодняя:
2019-01-05 U Новогодняя ночь на Первом [01-03 из 03] (2019) HDTVRip от Files-x 6.90 GB ↑ 73 ↓ 60
2018-12-27 U СашаТаня (Новогодняя серия) (2018) WEBRip от GeneralFilm 281.74 MB ↑ 156 ↓ 28
2018-12-26 U СашаТаня (Новогодняя серия) (2018) WEBRip-AVC от Files-x 288.15 MB ↑ 194 ↓ 44
2018-12-26 U СашаТаня [Новогодняя серия] (2018) WEBRip 1080p 834.63 MB ↑ 388 ↓ 90
2018-12-26 U VA - Новогодняя Дискотека Руки Вверх (2019) MP3 180.00 MB ↑ 136 ↓ 22
2018-12-21 U Братушева А. - Кулинария. Новогодняя коллекция [4 книги] (2016) PDF 32.73 MB ↑ 143 ↓ 9
2018-12-17 U Новогодняя елочка / Christmas Tree 2.1 (2018) РС 3.59 MB ↑ 133 ↓ 14

Отзывы
Dikan
Спасибо, сейчас всё нормально.

Зарегистрируйтесь чтобы добавить комментарий.
Обратная связь
Copyleft ©