↑↓Torrent.by
Поиск
Логин: Регистрация
Пароль: Восстановить пароль
Загрузка...

Экзорцист / Демонолог / The Demonologist (2018) WEBRip 720p | L2

Скачать ekzorcist-demonolog-the-demonologist-2018-webrip-720p-l2.torrent
U Магнитная ссылка Размер: 2.13 GB Раздают: 45 Качают: 12 Добавлен: 2019-01-07 06:12:36
Экзорцист / Демонолог / The Demonologist (2018) WEBRip 720p | L2

Название: Экзорцист / Демонолог
Оригинальное название: The Demonologist

Год выхода: 2018
Жанр: Ужасы
Режиссер: Дж.М. Стелли
В ролях: Брайан Краузе, Джаред Банкенс, Лара Грайс, Томас Мерфи, Кейт Туманова, Джефф Пирсон, Ронда Дентс, Манон Пейдж, Скотт Аллен Перри, Киган Мэйси
О фильме:
Детектив, расследующий серию убийств, выходит на группу людей, желающих воскресить короля тьмы.

Страна: США, CS West Productions, Thriller Films, Tip-Top Productions
Продолжительность: 01:40:35
Перевод: Любительский (двухголосый закадровый) | HiWay Grope

Файл
Кодек: MPEG-4 AVC/x.264
Качество: WEBRip 720p
Видео: 1280x720, 23.976 fps, ~2644 kbps, 0.120 bit/pixel
Звук:
Аудио rus: AC3, 48 kHz, 6 ch, 384 Kbps
Субтитры: отсутствуют

Реклама: присутствует

Семпл

Релиз от: HiWay Grope


[+] MediaInfo:

General
Unique ID                                : 333212700472544554490488919187983948210 (0xFAAE6E886A1FF0529E70815C474FD9B2)
Complete name                            : D:The.Demonologist.2018.720p.WEBRip.HiWayGropeThe.Demonologist.2018.720p.WEBRip.HiWayGrope.mkv
Format                                   : Matroska
Format version                           : Version 4
File size                                : 2.13 GiB
Duration                                 : 1 h 40 min
Overall bit rate                         : 3 025 kb/s
Encoded date                             : UTC 2019-01-06 08:52:49
Writing application                      : mkvmerge v30.0.0 ('Interstellar') 64-bit
Writing library                          : libebml v1.3.6 + libmatroska v1.4.9

Video
ID                                       : 1
Format                                   : AVC
Format/Info                              : Advanced Video Codec
Format profile                           : Main@L4.1
Format settings                          : CABAC / 4 Ref Frames
Format settings, CABAC                   : Yes
Format settings, RefFrames               : 4 frames
Codec ID                                 : V_MPEG4/ISO/AVC
Duration                                 : 1 h 40 min
Bit rate                                 : 2 644 kb/s
Width                                    : 1 280 pixels
Height                                   : 720 pixels
Display aspect ratio                     : 16:9
Frame rate mode                          : Constant
Frame rate                               : 23.976 (24000/1001) FPS
Standard                                 : NTSC
Color space                              : YUV
Chroma subsampling                       : 4:2:0
Bit depth                                : 8 bits
Scan type                                : Progressive
Bits/(Pixel*Frame)                       : 0.120
Stream size                              : 1.86 GiB (87%)
Language                                 : English
Default                                  : Yes
Forced                                   : No
Color range                              : Limited
Color primaries                          : BT.709
Transfer characteristics                 : BT.709
Matrix coefficients                      : BT.709

Audio
ID                                       : 2
Format                                   : AC-3
Format/Info                              : Audio Coding 3
Commercial name                          : Dolby Digital
Codec ID                                 : A_AC3
Duration                                 : 1 h 40 min
Bit rate mode                            : Constant
Bit rate                                 : 384 kb/s
Channel(s)                               : 6 channels
Channel layout                           : L R C LFE Ls Rs
Sampling rate                            : 48.0 kHz
Frame rate                               : 31.250 FPS (1536 SPF)
Bit depth                                : 16 bits
Compression mode                         : Lossy
Stream size                              : 277 MiB (13%)
Language                                 : Russian
Service kind                             : Complete Main
Default                                  : Yes
Forced                                   : No




Скриншоты:
[+] Всего файлов в раздаче - 1:
The.Demonologist.2018.720p.WEBRip.HiWayGrope.mkv2.13 GB

Текущая раздача:
ДатаКомментарии    РазмерПиры
2019-01-07 U Экзорцист / Демонолог / The Demonologist (2018) WEBRip 720p | L2 2.13 GB ↑ 45 ↓ 12

Похожие раздачи по запросу - экзорцист:
2016-12-21 U Экзорцист / The Exorcist [S01] (2016) WEB-DLRip от GeneralFilm | NewStudio 4.58 GB ↑ 217 ↓ 190
2016-07-09 U Случайный экзорцист / Accidental Exorcist (2016) WEB-DLRip | L1 1.38 GB ↑ 220 ↓ 82
2013-12-10 U Синий Экзорцист / Gekijouban Ao no Exorcist (2012) BDRip 720 | Persona99 1.49 GB ↑ 35 ↓ 4

Отзывы
Зарегистрируйтесь чтобы добавить комментарий.
Обратная связь
Copyleft ©