↑↓Torrent.by
Поиск
Логин: Регистрация
Пароль: Восстановить пароль
Загрузка...

Всё или ничего (2018) WEB-DLRip-AVC от ExKinoRay | iTunes

Скачать vse-ili-nichego-2018-web-dlrip-avc-ot-exkinoray-itunes.torrent
U Магнитная ссылка Размер: 744.60 MB Раздают: 113 Качают: 45 Добавлен: 2019-01-07 11:40:32
Всё или ничего (2018) WEB-DLRip-AVC от ExKinoRay | iTunes

Название: Всё или ничего
Год выхода: 2018
Жанр:  Комедия, приключения
Режиссер: Дмитрий Суворов
В ролях: Роман Курцын, Артур Смольянинов, Данила Якушев, Кирилл Каганович, Юрий Стоянов, Андрей Стоянов, Сергей Бурунов, Владимир Епифанцев, Роман Мадянов, Екатерина Соломатина

О фильме :
Офисный планктон — опасный зверь, если его разозлить. Трое менеджеров-неудачников объединяются в почти преступную группировку в попытке свергнуть обнаглевшего начальника, который безбожно обворовывает компанию. Друзья разрабатывают экстремальный план, как выкрасть 50 миллионов у босса и восстановить справедливость. Но как это бывает у новичков — всё идёт не по плану. Настоящим хозяином мешка с деньгами оказывается совсем не тот, на кого охотились герои — и вот тут у них начинаются реальные проблемы с криминальным миром.

Страна: Россия
Студия: ССБ Кино, КАРО Прокат
Продолжительность: 01:28:46
Язык: Русский | iTunes

Файл
Формат: MKV
Качество: WEB-DLRip-AVC
Видео: MPEG-4 AVC, 784x328, - 1098 Кбит/с
Аудио:  AAC-HE, 2 ch, - 76 Кбит/с
Субтитры: Нет


[+] MI
Общее
Уникальный идентификатор : 172168748291105167922337229022193702156 (0x81867EAA0B0468D5BBBE0B952556D50C)
Полное имя : D:MOVIESVsjo.ili.nichego.2018.WEB-DLRip-AVC.ExKinoRay.mkv
Формат : Matroska
Версия формата : Version 4 / Version 2
Размер файла : 745 Мбайт
Продолжительность : 1 ч. 28 м.
Общий поток : 1173 Кбит/сек
Дата кодирования : UTC 2019-01-07 06:06:03
Программа кодирования : mkvmerge v15.0.0 ('Duel with the Devil') 64-bit
Библиотека кодирования : libebml v1.3.5 + libmatroska v1.4.5

Видео
Идентификатор : 1
Формат : AVC
Формат/Информация : Advanced Video Codec
Профиль формата : High@L4.1
Параметр CABAC формата : Да
Параметр RefFrames формата : 12 кадров
Идентификатор кодека : V_MPEG4/ISO/AVC
Продолжительность : 1 ч. 28 м.
Битрейт : 1098 Кбит/сек
Ширина : 784 пикселя
Высота : 328 пикселей
Соотношение сторон : 2,40:1
Режим частоты кадров : Постоянный
Частота кадров : 24,000 кадра/сек
Цветовое пространство : YUV
Субдискретизация насыщенности : 4:2:0
Битовая глубина : 8 бит
Тип развёртки : Прогрессивная
Бит/(Пиксели*Кадры) : 0.178
Размер потока : 695 Мбайт (93%)
Библиотека кодирования : x264 core 152 r2851kMod ba24899
Настройки программы : cabac=1 / ref=12 / deblock=1:-3:-3 / analyse=0x3:0x133 / me=umh / subme=10 / psy=1 / fade_compensate=0.00 / psy_rd=1.00:0.15 / mixed_ref=1 / me_range=32 / chroma_me=1 / trellis=2 / 8x8dct=1 / cqm=0 / deadzone=21,11 / fast_pskip=0 / chroma_qp_offset=-3 / threads=6 / lookahead_threads=1 / sliced_threads=0 / nr=0 / decimate=0 / interlaced=0 / bluray_compat=0 / constrained_intra=0 / bframes=11 / b_pyramid=2 / b_adapt=2 / b_bias=0 / direct=3 / weightb=1 / open_gop=0 / weightp=2 / keyint=240 / keyint_min=23 / scenecut=40 / intra_refresh=0 / rc_lookahead=40 / rc=2pass / mbtree=1 / bitrate=1098 / ratetol=1.0 / qcomp=0.60 / qpmin=0 / qpmax=69 / qpstep=4 / cplxblur=20.0 / qblur=0.5 / ip_ratio=1.40 / aq=3:1.00
Default : Да
Forced : Нет

Аудио
Идентификатор : 2
Формат : AAC
Формат/Информация : Advanced Audio Codec
Профиль формата : HE-AAC / LC
Идентификатор кодека : A_AAC
Продолжительность : 1 ч. 28 м.
Битрейт : 76,0 Кбит/сек
Каналы : 2 канала
Расположение каналов : Front: L R
Частота : 48,0 КГц / 24,0 КГц
Частота кадров : 23,438 кадра/сек (1024 SPF)
Метод сжатия : С потерями
Задержка видео : 31 мс.
Размер потока : 48,3 Мбайт (6%)
Язык : Russian
Default : Да
Forced : Нет

Меню
00:00:00.000 : en:Глава 1
00:02:36.625 : en:Глава 2
00:07:17.750 : en:Глава 3
00:13:24.541 : en:Глава 4
00:18:52.791 : en:Глава 5
00:30:09.457 : en:Глава 6
00:35:24.373 : en:Глава 7
00:45:36.831 : en:Глава 8
00:56:26.539 : en:Глава 9
01:01:55.539 : en:Глава 10
01:06:58.372 : en:Глава 11
01:15:48.038 : en:Глава 12
01:21:39.871 : en:Глава 13



Скриншоты:
[+] Всего файлов в раздаче - 1:
Vsjo.ili.nichego.2018.WEB-DLRip-AVC.ExKinoRay.mkv744.60 MB

Текущая раздача:
ДатаКомментарии    РазмерПиры
2019-01-07 U Всё или ничего (2018) WEB-DLRip-AVC от ExKinoRay | iTunes 744.60 MB ↑ 113 ↓ 45

Показать еще раздачи по запросу ничего:
2019-01-09 U Всё или ничего (2018) WEB-DLRip от Scarabey | iTunes 1.44 GB ↑ 93 ↓ 24
2019-01-08 U Всё или ничего (2018) WEB-DLRip-AVC от Generalfilm | iTunes 1.21 GB ↑ 163 ↓ 30
2019-01-06 U Всё или ничего (2018) WEB-DLRip от Generalfilm | КПК | iTunes 336.55 MB ↑ 65 ↓ 30
2019-01-06 U Всё или ничего (2018) WEB-DLRip от GeneralFilm | iTunes 744.69 MB ↑ 159 ↓ 94
2019-01-06 U Всё или ничего (2018) WEB-DLRip от MegaPeer | iTunes 2К1.46 GB ↑ 1022 ↓ 386
2019-01-06 U Всё или ничего (2018) WEB-DL 1080p | iTunes 3.08 GB ↑ 692 ↓ 324
2019-01-04 U Ничего хорошего в отеле «Эль рояль» / Bad Times at the El Royale (2018) UHD BDRemux 2160p от селезень | 4K | HDR | iTunes 51.17 GB ↑ 114 ↓ 150

Отзывы
Зарегистрируйтесь чтобы добавить комментарий.
Обратная связь
Copyleft ©