↑↓Torrent.by
Поиск
Логин: Регистрация
Пароль: Восстановить пароль
Загрузка...

Крым (2017) WEB-DLRip от GeneralFilm | iTunes

Скачать krym-2017-web-dlrip-ot-generalfilm-itunes.torrent
U Магнитная ссылка Размер: 745.57 MB Раздают: 67 Качают: 42 Добавлен: 2019-01-07 11:40:44
Крым (2017) WEB-DLRip от GeneralFilm | iTunes

Год выпуска: 2017
Жанр:  Драма, Боевик
Выпущено: Россия, Кинохолдинг «ПимановФильм»
Режиссер: Алексей Пиманов
В ролях: Роман Курцын, Евгения Лапова, Павел Крайнов, Павел Трубинер, Борис Щербаков, Елена Котельникова, Геннадий Яковлев, Алексей Комашко, Никита Зверев, Игорь Буяновер

О фильме: История о любви, вере и чести, о силе духа и настоящей дружбе на фоне реальных событий весны 2014 года. Судьба свела их близ древнего города Мангуп-Кале. Это была любовь с первого взгляда… В непростые дни исторических перемен они должны сохранить свою жизнь и любовь.

Качество: WEB-DLRip
Видео: XviD build 73, 720x304 (2.37:1), 25.000 fps, 946 Kbps (0.173 bit/pixel)
Аудио: 48.0 kHz, МР3, 2/0 ch, 128 kbps
Продолжительность: 01:36:12
Перевод: Не требуется
Cубтитры: нет

Релиз:


[+] MediaInfo

General
Complete name               : D:RazdachiKrym.2017.WEB-DLRip.GeneralFilm.avi
Format                      : AVI
Format/Info                 : Audio Video Interleave
File size                   : 746 MiB
Duration                    : 1 h 36 min
Overall bit rate            : 1 084 kb/s
Writing application         : VirtualDubMod 1.5.10.3 | www.virtualdub-fr.org || (build 2550/release)
Writing library             : VirtualDubMod build 2550/release

Video
ID                          : 0
Format                      : MPEG-4 Visual
Format profile              : Advanced Simple@L5
Format settings             : BVOP1 / Custom Matrix
Format settings, BVOP       : 1
Format settings, QPel       : No
Format settings, GMC        : No warppoints
Format settings, Matrix     : Custom
Codec ID                    : XVID
Codec ID/Hint               : XviD
Duration                    : 1 h 36 min
Bit rate                    : 946 kb/s
Width                       : 720 pixels
Height                      : 304 pixels
Display aspect ratio        : 2.35:1
Frame rate                  : 25.000 FPS
Color space                 : YUV
Chroma subsampling          : 4:2:0
Bit depth                   : 8 bits
Scan type                   : Progressive
Compression mode            : Lossy
Bits/(Pixel*Frame)          : 0.173
Stream size                 : 651 MiB (87%)
Writing library             : XviD 73

Audio
ID                          : 1
Format                      : MPEG Audio
Format version              : Version 1
Format profile              : Layer 3
Codec ID                    : 55
Codec ID/Hint               : MP3
Duration                    : 1 h 36 min
Bit rate mode               : Constant
Bit rate                    : 128 kb/s
Channel(s)                  : 2 channels
Sampling rate               : 48.0 kHz
Frame rate                  : 41.667 FPS (1152 SPF)
Compression mode            : Lossy
Stream size                 : 88.1 MiB (12%)
Alignment                   : Aligned on interleaves
Interleave, duration        : 40  ms (1.00 video frame)
Interleave, preload duratio : 504  ms
Writing library             : LAME3.99r
Encoding settings           : -m s -V 4 -q 2 -lowpass 17 -b 128



Скриншоты:
[+] Всего файлов в раздаче - 1:
Krym.2017.WEB-DLRip.GeneralFilm.avi745.57 MB

Текущая раздача:
ДатаКомментарии    РазмерПиры
2019-01-07 U Крым (2017) WEB-DLRip от GeneralFilm | iTunes 745.57 MB ↑ 67 ↓ 42

Показать еще раздачи по запросу крым:
2018-03-21 U Смерть шпионам. Крым [02х01-08 из 08] (2008) SATRip-AVC 4.84 GB ↑ 40 ↓ 6
2017-11-14 U Крым (2017) WEB-DLRip-AVC от k.e.n & MegaPeer 1.46 GB ↑ 786 ↓ 346
2017-11-13 U Крым (2017) WEB-DLRip-AVC от KinoHitHD | iTunes 1.44 GB ↑ 774 ↓ 346
2017-11-13 U Крым (2017) WEB-DLRip | iTunes 1.37 GB ↑ 2117 ↓ 584
2017-11-13 U Крым (2017) WEB-DL 1080p | iTunes 3.35 GB ↑ 2616 ↓ 1464
2016-04-23 U Крым. Камни и пепел (2014) HDTVRip 720p от Generalfilm 621.14 MB ↑ 143 ↓ 9
2015-12-24 U Русский след. Крым. Последний причал (2014) WEB-DL 1080i от FilmRus 1.94 GB ↑ 99 ↓ 22

Отзывы
Зарегистрируйтесь чтобы добавить комментарий.
Обратная связь
Copyleft ©