↑↓Torrent.by
Поиск
Логин: Регистрация
Пароль: Восстановить пароль
Загрузка...

Фагот (2018) WEB-DLRip | iTunes

Скачать fagot-2018-web-dlrip-itunes.torrent
U Магнитная ссылка Размер: 951.80 MB Раздают: 450 Качают: 141 Добавлен: 2019-01-07 14:20:21
Фагот (2018) WEB-DLRip | iTunes

Название: Фагот
Год выхода: 2018
Жанр: Комедия
Страна: Россия
Перевод: не требуется
Продолжительность: 01:00:26
Режиссер: Борис Гуц
В ролях: Анастасия Пронина, Юлия Ауг, Ольга Кавалай-Аксенова, Александр Дривень, Анна Даукаева и др.

О фильме: Как расстаться с ревнивой девушкой? А если она еще и редкостная стерва? Максим не знает, ведь он «хочет, чтобы всем было хорошо». Пока мама и старшая сестра сыплют бесполезными советами, Максим придумывает самый абсурдный предлог для разрыва, который приводит к катастрофичным последствиям… Фильм целиком был снят на смартфон iPhone 7 Plus и камеру GoPro. Съемки заняли 4 дня.

Файл
Формат: AVI
Качество: WEB-DLRip
Видео: Xvid 73, 720x304, ~1998 kbps, 25,000 fps
Звук: русский, AC3, 2.0 ch, 48 kHz, 192 kbps | iTunes
Субтитры: нет


[+] MI
General
Полное имя                               : F:TorrentFagotWEBDLRip.avi
Формат                                   : AVI
Формат/Информация                        : Audio Video Interleave
Размер файла                             : 952 MiB
Продолжительность                        : 1 h 0 min
Общий поток                              : 2 201 kb/s
Программа кодирования                    : XviD4PSP 6.0 / 54.27.101

Video
Идентификатор                            : 0
Формат                                   : MPEG-4 Visual
Профиль формата                          : Advanced Simple@L5
Настройки формата                        : BVOP2 / Custom Matrix
Параметр BVOP формата                    : 2
Параметр QPel формата                    : No
Параметр GMC формата                     : No warppoints
Параметр матрицы формата                 : Custom
Идентификатор кодека                     : XVID
Идентификатор кодека/Подсказка           : XviD
Продолжительность                        : 1 h 0 min
Битрейт                                  : 1 998 kb/s
Ширина                                   : 720 pixels
Высота                                   : 304 pixels
Соотношение сторон                       : 2.35:1
Частота кадров                           : 25.000 FPS
Цветовое пространство                    : YUV
Субдискретизация насыщенности            : 4:2:0
Битовая глубина                          : 8 bits
Тип развёртки                            : Progressive
Метод сжатия                             : Lossy
Бит/(Пиксели*Кадры)                      : 0.365
Размер потока                            : 864 MiB (91%)
Библиотека кодирования                   : XviD 73

Audio
Идентификатор                            : 1
Формат                                   : AC-3
Формат/Информация                        : Audio Coding 3
Идентификатор кодека                     : 2000
Продолжительность                        : 1 h 0 min
Вид битрейта                             : Constant
Битрейт                                  : 192 kb/s
Каналы                                   : 2 channels
Расположение каналов                     : Front: L R
Частота                                  : 48.0 kHz
Частота кадров                           : 31.250 FPS (1536 SPF)
Битовая глубина                          : 16 bits
Метод сжатия                             : Lossy
Размер потока                            : 83.0 MiB (9%)
Выравнивание                             : Aligned on interleaves
Продолжительность промежутка             : 32  ms (0.80 video frame)




Скриншоты:
[+] Всего файлов в раздаче - 1:
FagotWEBDLRip.avi951.80 MB

Текущая раздача:
ДатаКомментарии    РазмерПиры
2019-01-07 U Фагот (2018) WEB-DLRip | iTunes 951.80 MB ↑ 450 ↓ 141

Похожие раздачи по запросу - фагот:
2019-01-08 U Фагот (2018) WEB-DLRip-AVC от ExKinoRay | iTunes 899.29 MB ↑ 71 ↓ 13
2019-01-08 U Фагот (2018) WEB-DLRip от GeneralFilm | iTunes 743.50 MB ↑ 62 ↓ 22
2019-01-08 U Фагот (2018) WEB-DL 1080p | iTunes 2.01 GB ↑ 375 ↓ 72

Отзывы
Зарегистрируйтесь чтобы добавить комментарий.
Обратная связь
Copyleft ©