↑↓Torrent.by
Поиск
Логин: Регистрация
Пароль: Восстановить пароль
Загрузка...

Клуб миллиардеров / Billionaire Boys Club (2018) BDRip-AVC от OlLanDGroup | Лицензия

Скачать klub-milliarderov-billionaire-boys-club-2018-bdrip-avc-ot-ollandgroup-licenziya.torrent
U Магнитная ссылка Размер: 2.00 GB Раздают: 77 Качают: 20 Добавлен: 2019-01-07 14:20:40
Клуб миллиардеров / Billionaire Boys Club (2018) BDRip-AVC от OlLanDGroup | Лицензия

Клуб миллиардеров / Billionaire Boys Club
«Скажи им правду, если хочешь обмануть»

Год выпуска: 2018
Страна: США
Производство: Armory Films, Oriah Entertainment, Tibet Born Pictures Limited, Vantage Entertainment
Жанр:  Триллер, драма, биография

Режиссёр: Джеймс Кокс
В ролях: Тэрон Эджертон, Эмма Робертс, Сьюки Уотерхаус, Кевин Спейси, Кэри Элвис, Билли Лурд, Энсел Элгорт, Джереми Ирвин, Боким Вудбайн, Розанна Аркетт

Перевод: Дублированный | [Лицензия]
Субтитры: Русские (полные), Английские (SDH)
Реклама: Отсутствует

Описание: Лос-Анджелес начала 1980-х. Компания молодых людей решает провернуть аферу, благоприятный исход которой сулит огромные деньги. Схема обогащения оказывается жизнеспособной и вместе с тем — смертельной.

Качество: BDRip-AVC | BDRemux | Billionaire Boys Club 2018 REMUX BluRay 1080p AVC DTS-HD MA5 1-iFT
Продолжительность: 01:43:52

Формат: MKV
Видео кодек: MPEG-4 AVC
Аудио кодек: AC3
Видео: 1024x428 (2.40:1), 25,000 fps, x264 ~1 863 kbps avg, 0.170 bit/pixel
Аудио #1: 48 kHz, AC3 Dolby Digital, 3/2 (L,C,R,l,r) + LFE ch, ~448.00 kbps avg | RUS (Лицензия)
Аудио #2: 48 kHz, AC3 Dolby Digital Plus, 3/2 (L,C,R,l,r) + LFE ch, ~448.00 kbps avg | ENG

Дата премьеры (мир): 17 июля 2018
Дата премьеры (РФ): 19 июля 2018, «Каскад фильм»
Цифровой релиз: 20 августа 2018, «НД Плэй»

Релиз: Rip by:


[+] MediaInfo

Общее
Уникальный идентификатор                 : 239537462833971510880024997526848871992 (0xB4353CBC3FB2A7A5F3A06D0941971E38)
Полное имя                               : F:OlLanDGroupBillionaire.Boys.Club.2018.BDRip(AVC).OlLanDGroup.mkv
Формат                                   : Matroska
Версия формата                           : Version 4 / Version 2
Размер файла                             : 2,00 Гбайт
Продолжительность                        : 1 ч. 43 м.
Общий поток                              : 2759 Кбит/сек
Название фильма                          : Billionaire.Boys.Club.2018   #TorpedoUK#
Дата кодирования                         : UTC 2019-01-06 18:47:36
Программа кодирования                    : mkvmerge v29.0.0 ('Like It Or Not') 64-bit
Библиотека кодирования                   : libebml v1.3.6 + libmatroska v1.4.9

Видео
Идентификатор                            : 1
Формат                                   : AVC
Формат/Информация                        : Advanced Video Codec
Профиль формата                          : High@L4.1
Параметр CABAC формата                   : Да
Параметр ReFrames формата                : 10 кадров
Идентификатор кодека                     : V_MPEG4/ISO/AVC
Продолжительность                        : 1 ч. 43 м.
Битрейт                                  : 1863 Кбит/сек
Ширина                                   : 1024 пикселя
Высота                                   : 428 пикселей
Соотношение сторон                       : 2,40:1
Режим частоты кадров                     : Постоянный
Частота кадров                           : 25,000 кадров/сек
Цветовое пространство                    : YUV
Субдискретизация насыщенности            : 4:2:0
Битовая глубина                          : 8 бит
Тип развёртки                            : Прогрессивная
Бит/(Пиксели*Кадры)                      : 0.170
Размер потока                            : 1,35 Гбайт (67%)
Библиотека кодирования                   : x264 core 146 r2538 121396c
Настройки программы                      : cabac=1 / ref=10 / deblock=1:-3:-3 / analyse=0x3:0x113 / me=umh / subme=11 / psy=1 / psy_rd=0.99:0.04 / mixed_ref=1 / me_range=48 / chroma_me=1 / trellis=2 / 8x8dct=1 / cqm=0 / deadzone=21,11 / fast_pskip=1 / chroma_qp_offset=-3 / threads=6 / lookahead_threads=1 / sliced_threads=0 / nr=0 / decimate=1 / interlaced=0 / bluray_compat=0 / constrained_intra=0 / bframes=10 / b_pyramid=2 / b_adapt=2 / b_bias=0 / direct=3 / weightb=1 / open_gop=0 / weightp=2 / keyint=250 / keyint_min=25 / scenecut=40 / intra_refresh=0 / rc_lookahead=40 / rc=2pass / mbtree=1 / bitrate=1863 / ratetol=1.0 / qcomp=0.60 / qpmin=0 / qpmax=69 / qpstep=4 / cplxblur=20.0 / qblur=0.5 / vbv_maxrate=50000 / vbv_bufsize=62500 / nal_hrd=none / filler=0 / ip_ratio=1.40 / aq=1:1.00
Язык                                     : English
Default                                  : Да
Forced                                   : Нет

Аудио #1
Идентификатор                            : 2
Формат                                   : AC-3
Формат/Информация                        : Audio Coding 3
Расширение режима                        : CM (complete main)
Параметр Endianness формата              : Big
Идентификатор кодека                     : A_AC3
Продолжительность                        : 1 ч. 43 м.
Вид битрейта                             : Постоянный
Битрейт                                  : 448 Кбит/сек
Каналы                                   : 6 каналов
Расположение каналов                     : Front: L C R, Side: L R, LFE
Частота                                  : 48,0 КГц
Частота кадров                           : 31,250 кадров/сек (1536 spf)
Битовая глубина                          : 16 бит
Метод сжатия                             : С потерями
Размер потока                            : 333 Мбайт (16%)
Заголовок                                : [License]
Язык                                     : Russian
Default                                  : Да
Forced                                   : Нет

Аудио #2
Идентификатор                            : 3
Формат                                   : AC-3
Формат/Информация                        : Audio Coding 3
Расширение режима                        : CM (complete main)
Параметр Endianness формата              : Big
Идентификатор кодека                     : A_AC3
Продолжительность                        : 1 ч. 43 м.
Вид битрейта                             : Постоянный
Битрейт                                  : 448 Кбит/сек
Каналы                                   : 6 каналов
Расположение каналов                     : Front: L C R, Side: L R, LFE
Частота                                  : 48,0 КГц
Частота кадров                           : 31,250 кадров/сек (1536 spf)
Битовая глубина                          : 16 бит
Метод сжатия                             : С потерями
Размер потока                            : 333 Мбайт (16%)
Заголовок                                : [Original]
Язык                                     : English
Default                                  : Нет
Forced                                   : Нет

Текст #1
Идентификатор                            : 4
Формат                                   : UTF-8
Идентификатор кодека                     : S_TEXT/UTF8
Идентификатор кодека/Информация          : UTF-8 Plain Text
Продолжительность                        : 1 ч. 32 м.
Битрейт                                  : 137 бит/сек
Count of elements                        : 1673
Размер потока                            : 93,2 Кбайт (0%)
Заголовок                                : Full
Язык                                     : Russian
Default                                  : Нет
Forced                                   : Нет

Текст #2
Идентификатор                            : 5
Формат                                   : UTF-8
Идентификатор кодека                     : S_TEXT/UTF8
Идентификатор кодека/Информация          : UTF-8 Plain Text
Продолжительность                        : 1 ч. 31 м.
Битрейт                                  : 84 бит/сек
Count of elements                        : 1732
Размер потока                            : 56,6 Кбайт (0%)
Заголовок                                : SDH
Язык                                     : English
Default                                  : Нет
Forced                                   : Нет

Меню
00:00:00.000                             : en:00:00:00.000
00:04:51.080                             : en:00:04:51.080
00:13:48.760                             : en:00:13:48.760
00:23:02.400                             : en:00:23:02.400
00:28:31.800                             : en:00:28:31.800
00:34:13.960                             : en:00:34:13.960
00:42:05.760                             : en:00:42:05.760
00:49:09.680                             : en:00:49:09.680
00:55:00.000                             : en:00:55:00.000
01:02:40.320                             : en:01:02:40.320
01:10:45.560                             : en:01:10:45.560
01:17:18.720                             : en:01:17:18.720
01:23:53.760                             : en:01:23:53.760
01:33:08.080                             : en:01:33:08.080



Скриншоты:
[+] Всего файлов в раздаче - 1:
Billionaire.Boys.Club.2018.BDRip(AVC).OlLanDGroup.mkv2.00 GB

Текущая раздача:
ДатаКомментарии    РазмерПиры
2019-01-07 U Клуб миллиардеров / Billionaire Boys Club (2018) BDRip-AVC от OlLanDGroup | Лицензия 2.00 GB ↑ 77 ↓ 20

Показать еще раздачи по запросу клуб:
2019-01-07 U Клуб миллиардеров / Billionaire Boys Club (2018) BDRip 1080p от OlLanDGroup | Лицензия 7.26 GB ↑ 42 ↓ 25
2019-01-07 U Клуб миллиардеров / Billionaire Boys Club (2018) BDRip от MegaPeer | Лицензия 1.46 GB ↑ 116 ↓ 29
2019-01-05 U Клуб одиноких сердец сержанта Пеппера / Sgt. Pepper's Lonely Hearts Club Band (1978) BDRip 1080p | A 11.00 GB ↑ 50 ↓ 36
2018-10-28 U Клуб любителей книг и пирогов из картофельных очистков / The Guernsey Literary and Potato Peel Pie Society (2018) BDRip | Jaskier 1.46 GB ↑ 139 ↓ 20
2018-10-17 U Клуб «Школа» / Public Schooled (2017) BDRip от MegaPeer | iTunes 1.42 GB ↑ 79 ↓ 14
2018-10-17 U Клуб «Школа» / Public Schooled (2017) BDRip 720p | iTunes 4.27 GB ↑ 38 ↓ 14
2018-10-17 U Клуб «Школа» / Public Schooled (2017) BDRip 1080p | iTunes 8.53 GB ↑ 158 ↓ 17

Отзывы
Зарегистрируйтесь чтобы добавить комментарий.
Обратная связь
Copyleft ©