↑↓Torrent.by
Поиск
Логин: Регистрация
Пароль: Восстановить пароль
Загрузка...

Помешанный на времени / Time Freak (2018) BDRip 1080p | iTunes

Скачать pomeshannyy-na-vremeni-time-freak-2018-bdrip-1080p-itunes.torrent
U Магнитная ссылка Размер: 8.20 GB Раздают: 190 Качают: 42 Добавлен: 2019-01-08 06:20:58
Помешанный на времени / Time Freak (2018) BDRip 1080p | iTunes

Название: Помешанный на времени
Оригинальное название: Time Freak
Год выхода: 2018
Жанр: Фантастика, мелодрама, комедия
Режиссер: Эндрю Боулер
В ролях: Эйса Баттерфилд, Софи Тернер, Скайлер Гизондо, Обри Рейнольдс, Джозеф Парк, Кэйден Дж. Грегор, Корал Чэмберс, Марк Блокович, Мэри Элизабет Бойлэн, Ками Кристиансен

О фильме:
Бросила девушка? Неужели уже ничего нельзя изменить? Можно! Студент-физик изобретает машину времени и отправляется в недалекое прошлое, чтобы исправить ошибки. В результате фатального сбоя главным действующим лицом этой любовной истории становится его лучший друг. С кем же останется девушка?

Страна: США
Студия: QC Entertainment, Rhodes Entertainment, Beach Pictures
Продолжительность: 01:44:51
Перевод: Дублированный | iTunes

Файл
Кодек: x.264
Качество: BDRip 1080p | Time.Freak.2018.1080p.BluRay.x264.DTS-CHD
Видео: MPEG-4 AVC, 9324 Kбит/с, 1920x1038, 23.976 кадр/с
Аудио #1: Русский ( АС3, 6ch, 384 Кбит/с, 48.0 KHz) Профессиональный (дублированный) iTunes
Аудио #2: Английский ( DTS, 6ch, 1509 Кбит/с, 48.0 KHz)
Субтитры: русские, английские


[+] MediaInfo
Источник: Time.Freak.2018.1080p.BluRay.x264.DTS-CHD
General
Unique ID                      : 245017054753487821606160016817718636426 (0xB8549179B800C70A8F84C7E30F0D2F8A)
Complete name                  : Time.Freak.2018.BDRip.1080p.mkv
Format                         : Matroska
Format version                 : Version 4 / Version 2
File size                      : 8.20 GiB
Duration                       : 1 h 44 min
Overall bit rate               : 11.2 Mb/s
Encoded date                   : UTC 2019-01-07 10:59:50
Writing application            : mkvmerge v7.1.0 ('Good Love') 64bit built on Jul 27 2014 13:06:55
Writing library                : libebml v1.3.0 + libmatroska v1.4.1

Video
ID                             : 1
Format                         : AVC
Format/Info                    : Advanced Video Codec
Format profile                 : High@L4.1
Format settings, CABAC         : Yes
Format settings, RefFrames     : 4 frames
Codec ID                       : V_MPEG4/ISO/AVC
Duration                       : 1 h 44 min
Bit rate                       : 9 324 kb/s
Width                          : 1 920 pixels
Height                         : 1 038 pixels
Display aspect ratio           : 1.85:1
Frame rate mode                : Constant
Frame rate                     : 23.976 (24000/1001) FPS
Color space                    : YUV
Chroma subsampling             : 4:2:0
Bit depth                      : 8 bits
Scan type                      : Progressive
Bits/(Pixel*Frame)             : 0.195
Stream size                    : 6.81 GiB (83%)
Writing library                : x264 core 155 r2901 7d0ff22
Encoding settings              : cabac=1 / ref=4 / deblock=1:-3:-3 / analyse=0x3:0x113 / me=umh / subme=10 / psy=1 / psy_rd=1.05:0.10 / mixed_ref=1 / me_range=48 / chroma_me=1 / trellis=2 / 8x8dct=1 / cqm=0 / deadzone=21,11 / fast_pskip=0 / chroma_qp_offset=-2 / threads=18 / lookahead_threads=1 / sliced_threads=0 / nr=0 / decimate=1 / interlaced=0 / bluray_compat=0 / constrained_intra=0 / bframes=6 / b_pyramid=2 / b_adapt=2 / b_bias=0 / direct=3 / weightb=1 / open_gop=0 / weightp=2 / keyint=250 / keyint_min=23 / scenecut=40 / intra_refresh=0 / rc=2pass / mbtree=0 / bitrate=9324 / ratetol=2.0 / qcomp=0.70 / qpmin=0 / qpmax=69 / qpstep=4 / cplxblur=20.0 / qblur=0.5 / ip_ratio=1.40 / pb_ratio=1.30 / aq=3:1.00
Language                       : English
Default                        : Yes
Forced                         : No

Audio #1
ID                             : 2
Format                         : AC-3
Format/Info                    : Audio Coding 3
Format settings, Endianness    : Big
Codec ID                       : A_AC3
Duration                       : 1 h 44 min
Bit rate mode                  : Constant
Bit rate                       : 384 kb/s
Channel(s)                     : 6 channels
Channel positions              : Front: L C R, Side: L R, LFE
Sampling rate                  : 48.0 kHz
Frame rate                     : 31.250 FPS (1536 SPF)
Bit depth                      : 16 bits
Compression mode               : Lossy
Stream size                    : 288 MiB (3%)
Title                          : DUB | iTunes
Language                       : Russian
Service kind                   : Complete Main
Default                        : Yes
Forced                         : No

Audio #2
ID                             : 3
Format                         : DTS
Format/Info                    : Digital Theater Systems
Mode                           : 16
Format settings, Endianness    : Big
Codec ID                       : A_DTS
Duration                       : 1 h 44 min
Bit rate mode                  : Constant
Bit rate                       : 1 509 kb/s
Channel(s)                     : 6 channels
Channel positions              : Front: L C R, Side: L R, LFE
Sampling rate                  : 48.0 kHz
Frame rate                     : 93.750 FPS (512 SPF)
Bit depth                      : 24 bits
Compression mode               : Lossy
Stream size                    : 1.11 GiB (13%)
Language                       : English
Default                        : No
Forced                         : No

Text #1
ID                             : 4
Format                         : UTF-8
Codec ID                       : S_TEXT/UTF8
Codec ID/Info                  : UTF-8 Plain Text
Duration                       : 1 h 37 min
Bit rate                       : 122 b/s
Count of elements              : 1541
Stream size                    : 87.4 KiB (0%)
Language                       : Russian
Default                        : No
Forced                         : No

Text #2
ID                             : 5
Format                         : UTF-8
Codec ID                       : S_TEXT/UTF8
Codec ID/Info                  : UTF-8 Plain Text
Duration                       : 1 h 37 min
Bit rate                       : 73 b/s
Count of elements              : 1552
Stream size                    : 52.8 KiB (0%)
Language                       : English
Default                        : No
Forced                         : No

Menu
00:00:00.000                   : en:00:00:00.000
00:04:52.417                   : en:00:04:52.417
00:13:02.532                   : en:00:13:02.532
00:21:34.293                   : en:00:21:34.293
00:27:18.804                   : en:00:27:18.804
00:34:16.846                   : en:00:34:16.846
00:41:16.766                   : en:00:41:16.766
00:45:10.625                   : en:00:45:10.625
00:52:59.635                   : en:00:52:59.635
00:57:34.743                   : en:00:57:34.743
01:04:36.247                   : en:01:04:36.247
01:13:16.350                   : en:01:13:16.350
01:16:20.910                   : en:01:16:20.910
01:23:36.470                   : en:01:23:36.470
01:32:09.983                   : en:01:32:09.983
01:35:38.566                   : en:01:35:38.566



Скриншоты:
[+] Всего файлов в раздаче - 1:
Time.Freak.2018.BDRip.1080p.mkv8.20 GB

Отзывы
Зарегистрируйтесь чтобы добавить комментарий.
Обратная связь
Copyleft ©