↑↓Torrent.by
Поиск
Логин: Регистрация
Пароль: Восстановить пароль
Загрузка...

Дубликат / Jonathan (2018) BDRip 1080p от селезень | iTunes

Скачать dublikat-jonathan-2018-bdrip-1080p-ot-selezen-itunes.torrent
U Магнитная ссылка Размер: 6.20 GB Раздают: 141 Качают: 52 Добавлен: 2019-01-08 06:21:25
Дубликат / Jonathan (2018) BDRip 1080p от селезень | iTunes

Название: Дубликат
Оригинальное название: Jonathan
Год выхода: 2018
Жанр: Фантастика, драма
Режиссер: Билл Оливер
В ролях: Энсел Элгорт, Патришия Кларксон, Сьюки Уотерхаус, Мэтт Бомер, Дуглас Ходж, Джо Эгендер, Джефф Ким, Аласка Л. МакФедден, Джули Микельсон, Шунори Раманатхан

О фильме: Как многие жители Манхэттена, Джонатан просыпается ровно в 7 утра и отправляется на работу, а вечером ложится спать. Вроде бы всё, как у всех. Если бы не одно «но» - каждый день молодой человек проживает две жизни. Пока одна личность спит, вторая ведёт активную жизнь. И каждое утро Джонатану приходит видео от самого себя - о том, что он делал во второй половине дня.Но однажды происходит событие, которое приводит к необратимым последствиям.

Страна: США
Студия: Manis Film, Raised by Wolves
Продолжительность: 01:40:47
Перевод: Профессиональный многоголосый | iTunes

Качество: BDRip 1080p
Видео: MPEG-4 AVC, 1920x804, 6906 Кbit/s, 23.976 fps
Звук:
Аудио #01: 48 kHz, AC3, 5.1, 384 Kbps | iTunes | RUS |
Аудио #02: 48 kHz, DTS, 5.1, 1510 Kbps | Оригинал |  ENG |
Субтитры: Английские

Релиз:


[+] MI
General
Unique ID                   : 96234412738029284946058159705801165901 (0x486612DF228BF3FF53B533F8528D0C4D)
Complete name               : D:Video111Jonathan.2018.BDRip.1080p.seleZen.mkv
Format                      : Matroska
Format version              : Version 4
File size                   : 6.20 GiB
Duration                    : 1 h 40 min
Overall bit rate            : 8 802 kb/s
Movie name                  : Jonathan 2018 fdrom селезень
Encoded date                : UTC 2019-01-07 14:35:56
Writing application         : mkvmerge v29.0.0 ('Like It Or Not') 64-bit
Writing library             : libebml v1.3.6 + libmatroska v1.4.9

Video
ID                          : 1
Format                      : AVC
Format/Info                 : Advanced Video Codec
Format profile              : High@L4.1
Format settings             : CABAC / 5 Ref Frames
Format settings, CABAC      : Yes
Format settings, ReFrames   : 5 frames
Codec ID                    : V_MPEG4/ISO/AVC
Duration                    : 1 h 40 min
Bit rate                    : 6 906 kb/s
Width                       : 1 920 pixels
Height                      : 804 pixels
Display aspect ratio        : 2.40:1
Frame rate mode             : Constant
Frame rate                  : 23.976 (24000/1001) FPS
Color space                 : YUV
Chroma subsampling          : 4:2:0
Bit depth                   : 8 bits
Scan type                   : Progressive
Bits/(Pixel*Frame)          : 0.187
Stream size                 : 4.86 GiB (78%)
Title                       : CHD
Writing library             : x264 core 155 r2893 b00bcaf
Encoding settings           : cabac=1 / ref=5 / deblock=1:-3:-3 / analyse=0x3:0x113 / me=umh / subme=10 / psy=1 / psy_rd=1.00:0.05 / mixed_ref=1 / me_range=48 / chroma_me=1 / trellis=2 / 8x8dct=1 / cqm=0 / deadzone=21,11 / fast_pskip=0 / chroma_qp_offset=-2 / threads=18 / lookahead_threads=3 / sliced_threads=0 / nr=0 / decimate=1 / interlaced=0 / bluray_compat=0 / constrained_intra=0 / bframes=8 / b_pyramid=2 / b_adapt=2 / b_bias=0 / direct=3 / weightb=1 / open_gop=0 / weightp=2 / keyint=250 / keyint_min=23 / scenecut=40 / intra_refresh=0 / rc_lookahead=40 / rc=crf / mbtree=0 / crf=18.0 / qcomp=0.60 / qpmin=0 / qpmax=69 / qpstep=4 / vbv_maxrate=50000 / vbv_bufsize=45000 / crf_max=0.0 / nal_hrd=none / filler=0 / ip_ratio=1.40 / pb_ratio=1.30 / aq=3:1.00
Language                    : English
Default                     : Yes
Forced                      : No
Color range                 : Limited
Matrix coefficients         : BT.709

Audio #1
ID                          : 2
Format                      : AC-3
Format/Info                 : Audio Coding 3
Commercial name             : Dolby Digital
Codec ID                    : A_AC3
Duration                    : 1 h 40 min
Bit rate mode               : Constant
Bit rate                    : 384 kb/s
Channel(s)                  : 6 channels
Channel layout              : L R C LFE Ls Rs
Sampling rate               : 48.0 kHz
Frame rate                  : 31.250 FPS (1536 SPF)
Bit depth                   : 16 bits
Compression mode            : Lossy
Stream size                 : 277 MiB (4%)
Title                       : iTunes
Language                    : Russian
Service kind                : Complete Main
Default                     : Yes
Forced                      : Yes

Audio #2
ID                          : 3
Format                      : DTS
Format/Info                 : Digital Theater Systems
Codec ID                    : A_DTS
Duration                    : 1 h 40 min
Bit rate mode               : Constant
Bit rate                    : 1 509 kb/s
Channel(s)                  : 6 channels
Channel layout              : C L R Ls Rs LFE
Sampling rate               : 48.0 kHz
Frame rate                  : 93.750 FPS (512 SPF)
Bit depth                   : 24 bits
Compression mode            : Lossy
Stream size                 : 1.06 GiB (17%)
Title                       : Original
Language                    : English
Default                     : No
Forced                      : No

Text
ID                          : 4
Format                      : UTF-8
Codec ID                    : S_TEXT/UTF8
Codec ID/Info               : UTF-8 Plain Text
Duration                    : 1 h 34 min
Bit rate                    : 38 b/s
Count of elements           : 931
Stream size                 : 26.4 KiB (0%)
Title                       : Full
Language                    : English
Default                     : No
Forced                      : No

Menu
00:00:00.000                : en:00:00:00.000
00:06:53.663                : en:00:06:53.663
00:13:04.325                : en:00:13:04.325
00:20:40.322                : en:00:20:40.322
00:27:33.235                : en:00:27:33.235
00:34:05.335                : en:00:34:05.335
00:43:37.198                : en:00:43:37.198
00:53:06.850                : en:00:53:06.850
01:02:43.593                : en:01:02:43.593
01:11:23.738                : en:01:11:23.738
01:23:01.894                : en:01:23:01.894
01:35:42.362                : en:01:35:42.362



Скриншоты:
[+] Всего файлов в раздаче - 1:
Jonathan.2018.BDRip.1080p.seleZen.mkv6.20 GB

Показать еще раздачи по запросу дубликат:
2019-01-14 U Дубликат / Jonathan (2018) BDRip-AVC от OlLanDGroup | iTunes 1.84 GB ↑ 335 ↓ 11
2019-01-09 U Дубликат / Jonathan (2018) HDRip | iTunes 2.19 GB ↑ 223 ↓ 61
2019-01-08 U Дубликат / Jonathan (2018) BDRip 720p от селезень | iTunes 3.46 GB ↑ 157 ↓ 41
2018-11-29 U Дубликат / Jonathan (2018) WEB-DLRip-AVC от OlLanDGroup | iTunes 1.80 GB ↑ 174 ↓ 68
2018-11-29 U Дубликат / Jonathan (2018) WEB-DL 1080p | iTunes 7.30 GB ↑ 131 ↓ 115
2018-11-29 U Дубликат / Jonathan (2018) WEB-DLRip от MegaPeer | iTunes 1.46 GB ↑ 177 ↓ 91
2018-11-25 U Дубликат / Jonathan (2018) WEBRip | L2 1.25 GB ↑ 268 ↓ 29

Отзывы
Зарегистрируйтесь чтобы добавить комментарий.
Обратная связь
Copyleft ©