↑↓Torrent.by
Поиск
Логин: Регистрация
Пароль: Восстановить пароль
Загрузка...

Ледяная комета 3D 2: Путешественник во времени / Bing feng: Yong heng zhi men (2018) WEBRip | L2

Скачать ledyanaya-kometa-3d-2-puteshestvennik-vo-vremeni-bing-feng-yong-heng-zhi-men-2018-webrip-l2.torrent
U Магнитная ссылка Размер: 1.22 GB Раздают: 66 Качают: 9 Добавлен: 2019-01-08 06:22:01
Ледяная комета 3D 2: Путешественник во времени / Bing feng: Yong heng zhi men (2018) WEBRip | L2

Название: Ледяная комета 3D 2: Путешественник во времени
Оригинальное название: Bing feng: Yong heng zhi men
Год выхода: 2018
Жанр: Фантастика, боевик, комедия, история
Режиссер: Рэймонд Ип
В ролях: Донни Йен, Баоцян Ван, Ева Хуан, Кан Юй, Саймон Ям, Ясуаки Курата, Ганс Марреро, Минова Ясуфуми
О фильме:
Генерал Древнего Китая Хэ Ин находит могучий артефакт, обладающий властью над временем и пространством. Но стоит ли эта власть прилагающейся ответственности?

Страна: Китай, Гонконг, Zhongmeng Century Media
Продолжительность: 01:27:35
Перевод: Любительский (двухголосый закадровый) | HiWay Grope

Файл
Кодек: XviD
Качество: WEBRip
Видео: 720x304, 24 fps, ~1598 kbps, 0.30 bit/pixel
Звук:
Аудио rus: AC3, 48 kHz, 6 ch, 384 Kbps
Субтитры: отсутствуют

Реклама: присутствует

Семпл

Релиз от: HiWay Grope


[+] MediaInfo:

General
Complete name                            : D:Iceman.The.Time.Traveller.2018.WEBRip.HiWayGropeIceman.The.Time.Traveller.2018.WEBRip.HiWayGrope.avi
Format                                   : AVI
Format/Info                              : Audio Video Interleave
File size                                : 1.22 GiB
Duration                                 : 1 h 27 min
Overall bit rate                         : 1 992 kb/s
Writing application                      : VirtualDubMod 1.5.10.3 (build 2550/release)
Writing library                          : VirtualDubMod build 2550/release

Video
ID                                       : 0
Format                                   : MPEG-4 Visual
Format profile                           : Simple@L5
Format settings                          : BVOP1
Format settings, BVOP                    : 1
Format settings, QPel                    : No
Format settings, GMC                     : No warppoints
Format settings, Matrix                  : Default (H.263)
Codec ID                                 : XVID
Codec ID/Hint                            : XviD
Duration                                 : 1 h 27 min
Bit rate                                 : 1 599 kb/s
Width                                    : 720 pixels
Height                                   : 304 pixels
Display aspect ratio                     : 2.40:1
Frame rate                               : 24.000 FPS
Color space                              : YUV
Chroma subsampling                       : 4:2:0
Bit depth                                : 8 bits
Scan type                                : Progressive
Compression mode                         : Lossy
Bits/(Pixel*Frame)                       : 0.304
Stream size                              : 1 002 MiB (80%)
Writing library                          : XviD 67

Audio
ID                                       : 1
Format                                   : AC-3
Format/Info                              : Audio Coding 3
Commercial name                          : Dolby Digital
Codec ID                                 : 2000
Duration                                 : 1 h 27 min
Bit rate mode                            : Constant
Bit rate                                 : 384 kb/s
Channel(s)                               : 6 channels
Channel layout                           : L R C LFE Ls Rs
Sampling rate                            : 48.0 kHz
Frame rate                               : 31.250 FPS (1536 SPF)
Bit depth                                : 16 bits
Compression mode                         : Lossy
Stream size                              : 241 MiB (19%)
Alignment                                : Split accross interleaves
Interleave, duration                     : 42  ms (1.00 video frame)
Interleave, preload duration             : 500  ms
Service kind                             : Complete Main




Скриншоты:
[+] Всего файлов в раздаче - 1:
Iceman.The.Time.Traveller.2018.WEBRip.HiWayGrope.avi1.22 GB

Текущая раздача:
ДатаКомментарии    РазмерПиры
2019-01-08 U Ледяная комета 3D 2: Путешественник во времени / Bing feng: Yong heng zhi men (2018) WEBRip | L2 1.22 GB ↑ 66 ↓ 9

Похожие раздачи по запросу - ледяная:
2019-01-08 U Ледяная комета 3D 2: Путешественник во времени / Bing feng: Yong heng zhi men (2018) WEBRip 720p | L2 1.88 GB ↑ 58 ↓ 19
2017-11-19 U Сказки без конца 2: Ледяная тропа. Коллекционное Издание (2017) PC 1.26 GB ↑ 408 ↓ 60
2017-05-19 U Ледяная зона / Cold Zone (2017) WEB-DLRip | L 1.37 GB ↑ 226 ↓ 149
2017-01-11 U Ледяная скульптура Рождества / Ice Sculpture Christmas (2015) SATRip | P 1.37 GB ↑ 274 ↓ 39
2015-10-11 U Ледяная угроза / Christmas Icetastrophe (2014) HDRip | P 1.37 GB ↑ 313 ↓ 87

Отзывы
Зарегистрируйтесь чтобы добавить комментарий.
Обратная связь
Copyleft ©