↑↓Torrent.by
Поиск
Логин: Регистрация
Пароль: Восстановить пароль
Загрузка...

Последний свидетель / Furthest Witness (2017) WEBRip | L2

Скачать posledniy-svidetel-furthest-witness-2017-webrip-l2.torrent
U Магнитная ссылка Размер: 1.23 GB Раздают: 68 Качают: 14 Добавлен: 2019-01-08 06:22:04
Последний свидетель / Furthest Witness (2017) WEBRip | L2

Название: Последний свидетель
Оригинальное название: Furthest Witness

Год выхода: 2017
Жанр: Триллер, драма, криминал
Режиссер: Адам Дель Джудице
В ролях: Шон Патрик Флэнери, Аарон Стэнфорд, Тери Ривз, Стивен Майкл Квезада, Трэвис Хаммер, Джулиан Бонфильо, Крис Билсма, Райан Бегей, Жермен Вашингтон, Форрест Файр
О фильме:
Кайл предоставляет очень необычные услуги - он помогает исчезнуть людям, которые хотят исчезнуть. Но при выполнении последнего задания герой сам оказывается в списке жертв таинственного и опасного человека, который не остановится ни перед чем, чтобы найти девушку, которой Кайл пытается помочь.

Страна: США, Великобритания, Arctic Rabbit Pictures,Benattar/Thomas Productions
Продолжительность: 01:28:06
Перевод: Любительский (двухголосый закадровый) | HiWay Grope

Файл
Кодек: XviD
Качество: WEBRip
Видео: 720x304, 23.976 fps, ~1597 kbps avg, 0.30 bit/pixel
Звук:
Аудио rus: AC3, 48 kHz, 6 ch, 384 Kbps
Субтитры: отсутствуют

Реклама: присутствует

Семпл

Релиз от: HiWay Grope


[+] MediaInfo:

General
Complete name                            : D:Furthest.Witness.2017.WEBRip.HiWayGropeFurthest.Witness.2017.WEBRip.HiWayGrope.avi
Format                                   : AVI
Format/Info                              : Audio Video Interleave
File size                                : 1.23 GiB
Duration                                 : 1 h 28 min
Overall bit rate                         : 1 991 kb/s
Writing application                      : VirtualDubMod 1.5.10.3 (build 2550/release)
Writing library                          : VirtualDubMod build 2550/release

Video
ID                                       : 0
Format                                   : MPEG-4 Visual
Format profile                           : Simple@L5
Format settings                          : BVOP1
Format settings, BVOP                    : 1
Format settings, QPel                    : No
Format settings, GMC                     : No warppoints
Format settings, Matrix                  : Default (H.263)
Codec ID                                 : XVID
Codec ID/Hint                            : XviD
Duration                                 : 1 h 28 min
Bit rate                                 : 1 598 kb/s
Width                                    : 720 pixels
Height                                   : 304 pixels
Display aspect ratio                     : 2.40:1
Frame rate                               : 23.976 (24000/1001) FPS
Color space                              : YUV
Chroma subsampling                       : 4:2:0
Bit depth                                : 8 bits
Scan type                                : Progressive
Compression mode                         : Lossy
Bits/(Pixel*Frame)                       : 0.305
Stream size                              : 1 007 MiB (80%)
Writing library                          : XviD 67

Audio
ID                                       : 1
Format                                   : AC-3
Format/Info                              : Audio Coding 3
Commercial name                          : Dolby Digital
Codec ID                                 : 2000
Duration                                 : 1 h 28 min
Bit rate mode                            : Constant
Bit rate                                 : 384 kb/s
Channel(s)                               : 6 channels
Channel layout                           : L R C LFE Ls Rs
Sampling rate                            : 48.0 kHz
Frame rate                               : 31.250 FPS (1536 SPF)
Bit depth                                : 16 bits
Compression mode                         : Lossy
Stream size                              : 242 MiB (19%)
Alignment                                : Split accross interleaves
Interleave, duration                     : 42  ms (1.00 video frame)
Interleave, preload duration             : 500  ms
Service kind                             : Complete Main




Скриншоты:
[+] Всего файлов в раздаче - 1:
Furthest.Witness.2017.WEBRip.HiWayGrope.avi1.23 GB

Текущая раздача:
ДатаКомментарии    РазмерПиры
2019-01-08 U Последний свидетель / Furthest Witness (2017) WEBRip | L2 1.23 GB ↑ 68 ↓ 14

Показать еще раздачи по запросу последний:
2019-01-10 U Последний мальчик / The Last Boy (2019) WEBRip | L 1.46 GB ↑ 269 ↓ 77
2019-01-08 U Последний свидетель / Furthest Witness (2017) WEBRip 720p | L2 1К1.90 GB ↑ 41 ↓ 13
2018-12-31 U Голый пистолет 33 1/3: Последний выпад / Naked Gun 33 1/3: The Final Insult (1994) BDRip от HQCLUB 1.45 GB ↑ 89 ↓ 10
2018-12-17 U Последний акулий торнадо: Как раз вовремя / The Last Sharknado: It's About Time (2018) BDRip 1080p | Jaskier 6.41 GB ↑ 66 ↓ 8
2018-11-12 U Снайпер: Герой сопротивления / Последний выстрел [01-04 из 04] (2015) HDTVRip от GeneralFilm 2.31 GB ↑ 59 ↓ 30
2018-10-19 U Последний убийца драконов / The Last Dragonslayer (2016) WEB-DLRip 1080p | LakeFilms 1К3.52 GB ↑ 146 ↓ 14
2018-10-18 U Последний беспредел / Autoreiji saishusho / Outrage Coda (2017) BDRip от MegaPeer | iTunes 1.46 GB ↑ 152 ↓ 39

Отзывы
Зарегистрируйтесь чтобы добавить комментарий.
Обратная связь
Copyleft ©