↑↓Torrent.by
Поиск
Логин: Регистрация
Пароль: Восстановить пароль
Загрузка...

Фагот (2018) WEB-DLRip от GeneralFilm | iTunes

Скачать fagot-2018-web-dlrip-ot-generalfilm-itunes.torrent
U Магнитная ссылка Размер: 743.50 MB Раздают: 62 Качают: 22 Добавлен: 2019-01-08 06:22:07
Фагот (2018) WEB-DLRip от GeneralFilm | iTunes

Оригинальное название: Фагот
Год выпуска: 2018
Жанр:  Комедия
Выпущено: Россия, «Парадиз»
Режиссер: Борис Гуц
В ролях: Анастасия Пронина, Юлия Ауг, Ольга Кавалай-Аксенова, Александр Дривень, Анна Даукаева и др.

О фильме: Как расстаться с ревнивой девушкой? А если она еще и редкостная стерва? Максим не знает, ведь он «хочет, чтобы всем было хорошо». Пока мама и старшая сестра сыплют бесполезными советами, Максим придумывает самый абсурдный предлог для разрыва, который приводит к катастрофичным последствиям… Фильм целиком был снят на смартфон iPhone 7 Plus и камеру GoPro. Съемки заняли 4 дня.

Качество: WEB-DLRip
Видео: XviD build 73, 720x304 (2.37:1), 25.000 fps, 1518 Kbps (0.277 bit/pixel)
Аудио: 48.0 kHz, AC3, 2/0 ch, 192 kbps
Продолжительность: 01:00:26
Перевод: Не требуется
Cубтитры: нет

Релиз:


[+] MediaInfo

General
Complete name               : D:RazdachiFagot.2018.WEB-DLRip.GeneralFilm.avi
Format                      : AVI
Format/Info                 : Audio Video Interleave
File size                   : 744 MiB
Duration                    : 1 h 0 min
Overall bit rate            : 1 720 kb/s
Writing application         : VirtualDubMod 1.5.10.3 | www.virtualdub-fr.org || (build 2550/release)
Writing library             : VirtualDubMod build 2550/release

Video
ID                          : 0
Format                      : MPEG-4 Visual
Format profile              : Advanced Simple@L5
Format settings             : BVOP1 / Custom Matrix
Format settings, BVOP       : 1
Format settings, QPel       : No
Format settings, GMC        : No warppoints
Format settings, Matrix     : Custom
Codec ID                    : XVID
Codec ID/Hint               : XviD
Duration                    : 1 h 0 min
Bit rate                    : 1 518 kb/s
Width                       : 720 pixels
Height                      : 304 pixels
Display aspect ratio        : 2.35:1
Frame rate                  : 25.000 FPS
Color space                 : YUV
Chroma subsampling          : 4:2:0
Bit depth                   : 8 bits
Scan type                   : Progressive
Compression mode            : Lossy
Bits/(Pixel*Frame)          : 0.277
Stream size                 : 656 MiB (88%)
Writing library             : XviD 73

Audio
ID                          : 1
Format                      : AC-3
Format/Info                 : Audio Coding 3
Commercial name             : Dolby Digital
Codec ID                    : 2000
Duration                    : 1 h 0 min
Bit rate mode               : Constant
Bit rate                    : 192 kb/s
Channel(s)                  : 2 channels
Channel layout              : L R
Sampling rate               : 48.0 kHz
Frame rate                  : 31.250 FPS (1536 SPF)
Bit depth                   : 16 bits
Compression mode            : Lossy
Stream size                 : 83.0 MiB (11%)
Alignment                   : Split accross interleaves
Interleave, duration        : 40  ms (1.00 video frame)
Interleave, preload duratio : 500  ms
Service kind                : Complete Main



Скриншоты:
[+] Всего файлов в раздаче - 1:
Fagot.2018.WEB-DLRip.GeneralFilm.avi743.50 MB

Текущая раздача:
ДатаКомментарии    РазмерПиры
2019-01-08 U Фагот (2018) WEB-DLRip от GeneralFilm | iTunes 743.50 MB ↑ 62 ↓ 22

Похожие раздачи по запросу - фагот:
2019-01-08 U Фагот (2018) WEB-DLRip-AVC от ExKinoRay | iTunes 899.29 MB ↑ 70 ↓ 13
2019-01-08 U Фагот (2018) WEB-DL 1080p | iTunes 2.01 GB ↑ 374 ↓ 72
2019-01-07 U Фагот (2018) WEB-DLRip | iTunes 951.80 MB ↑ 448 ↓ 141

Отзывы
Зарегистрируйтесь чтобы добавить комментарий.
Обратная связь
Copyleft ©