↑↓Torrent.by
Поиск
Логин: Регистрация
Пароль: Восстановить пароль
Загрузка...

Последний свидетель / Furthest Witness (2017) WEBRip 720p | L2

Скачать posledniy-svidetel-furthest-witness-2017-webrip-720p-l2.torrent
U Магнитная ссылка Размер: 1.90 GB Раздают: 41 Качают: 13 Добавлен: 2019-01-08 06:22:19
Последний свидетель / Furthest Witness (2017) WEBRip 720p | L2

Название: Последний свидетель
Оригинальное название: Furthest Witness

Год выхода: 2017
Жанр: Триллер, драма, криминал
Режиссер: Адам Дель Джудице
В ролях: Шон Патрик Флэнери, Аарон Стэнфорд, Тери Ривз, Стивен Майкл Квезада, Трэвис Хаммер, Джулиан Бонфильо, Крис Билсма, Райан Бегей, Жермен Вашингтон, Форрест Файр
О фильме:
Кайл предоставляет очень необычные услуги - он помогает исчезнуть людям, которые хотят исчезнуть. Но при выполнении последнего задания герой сам оказывается в списке жертв таинственного и опасного человека, который не остановится ни перед чем, чтобы найти девушку, которой Кайл пытается помочь.

Страна: США, Великобритания, Arctic Rabbit Pictures,Benattar/Thomas Productions
Продолжительность: 01:28:06
Перевод: Любительский (двухголосый закадровый) | HiWay Grope

Файл
Кодек: MPEG-4 AVC/x.264
Качество: WEBRip 720p
Видео: 1280x534, 23.976 fps, ~2693 kbps, 0.164 bit/pixel
Звук:
Аудио rus: AC3, 48 kHz, 6 ch, 384 Kbps
Субтитры: отсутствуют

Реклама: присутствует

Семпл

Релиз от: HiWay Grope


[+] MediaInfo:

General
Unique ID                                : 57082455440297901227490204674538537543 (0x2AF1AE5788B08666E8C0C0BE24E70247)
Complete name                            : D:Furthest.Witness.2017.720pWEBRip.HiWayGropeFurthest.Witness.2017.720pWEBRip.HiWayGrope.mkv
Format                                   : Matroska
Format version                           : Version 4
File size                                : 1.90 GiB
Duration                                 : 1 h 28 min
Overall bit rate                         : 3 079 kb/s
Encoded date                             : UTC 2019-01-07 06:57:00
Writing application                      : mkvmerge v30.0.0 ('Interstellar') 64-bit
Writing library                          : libebml v1.3.6 + libmatroska v1.4.9

Video
ID                                       : 1
Format                                   : AVC
Format/Info                              : Advanced Video Codec
Format profile                           : Main@L3.1
Format settings                          : CABAC / 4 Ref Frames
Format settings, CABAC                   : Yes
Format settings, RefFrames               : 4 frames
Codec ID                                 : V_MPEG4/ISO/AVC
Duration                                 : 1 h 28 min
Bit rate                                 : 2 693 kb/s
Width                                    : 1 280 pixels
Height                                   : 534 pixels
Display aspect ratio                     : 2.40:1
Frame rate mode                          : Constant
Frame rate                               : 23.976 (24000/1001) FPS
Standard                                 : NTSC
Color space                              : YUV
Chroma subsampling                       : 4:2:0
Bit depth                                : 8 bits
Scan type                                : Progressive
Bits/(Pixel*Frame)                       : 0.164
Stream size                              : 1.66 GiB (87%)
Language                                 : English
Default                                  : Yes
Forced                                   : No
Color range                              : Limited
Color primaries                          : BT.601 NTSC
Transfer characteristics                 : BT.601
Matrix coefficients                      : BT.601

Audio
ID                                       : 2
Format                                   : AC-3
Format/Info                              : Audio Coding 3
Commercial name                          : Dolby Digital
Codec ID                                 : A_AC3
Duration                                 : 1 h 28 min
Bit rate mode                            : Constant
Bit rate                                 : 384 kb/s
Channel(s)                               : 6 channels
Channel layout                           : L R C LFE Ls Rs
Sampling rate                            : 48.0 kHz
Frame rate                               : 31.250 FPS (1536 SPF)
Bit depth                                : 16 bits
Compression mode                         : Lossy
Stream size                              : 242 MiB (12%)
Language                                 : Russian
Service kind                             : Complete Main
Default                                  : Yes
Forced                                   : No




Скриншоты:
[+] Всего файлов в раздаче - 1:
Furthest.Witness.2017.720pWEBRip.HiWayGrope.mkv1.90 GB

Текущая раздача:
ДатаКомментарии    РазмерПиры
2019-01-08 U Последний свидетель / Furthest Witness (2017) WEBRip 720p | L2 1 К 1.90 GB ↑ 41 ↓ 13

Показать еще раздачи по запросу последний:
2019-01-10 U Последний мальчик / The Last Boy (2019) WEBRip | L 1.46 GB ↑ 269 ↓ 77
2019-01-08 U Последний свидетель / Furthest Witness (2017) WEBRip | L2 1.23 GB ↑ 68 ↓ 14
2018-12-31 U Голый пистолет 33 1/3: Последний выпад / Naked Gun 33 1/3: The Final Insult (1994) BDRip от HQCLUB 1.45 GB ↑ 89 ↓ 10
2018-12-17 U Последний акулий торнадо: Как раз вовремя / The Last Sharknado: It's About Time (2018) BDRip 1080p | Jaskier 6.41 GB ↑ 66 ↓ 8
2018-11-12 U Снайпер: Герой сопротивления / Последний выстрел [01-04 из 04] (2015) HDTVRip от GeneralFilm 2.31 GB ↑ 59 ↓ 30
2018-10-19 U Последний убийца драконов / The Last Dragonslayer (2016) WEB-DLRip 1080p | LakeFilms 1К3.52 GB ↑ 146 ↓ 14
2018-10-18 U Последний беспредел / Autoreiji saishusho / Outrage Coda (2017) BDRip от MegaPeer | iTunes 1.46 GB ↑ 152 ↓ 39

Отзывы
gorsan
Малобюджетный криминальный триллер, очень слабенький даже для авторского дебюта. Сюжет хоть и вторичный, но имеет право на жизнь, зато сценарий куцый и невнятный, при этом юный начинающий автор не может придумать ничего оригинального, зато плагиатить горазд. А юный он потому, что плагиатит идеи без понимания их назначения, да и сюжетные ходы детством отдают. Поставлено кино средненько, экшен есть, но его мало, а он мог бы помочь, атмосферы тоже не хватает, визуально все довольно дешево, но в целом не убого, хоть не пытаются под блокбастер косить. Возможно, это можно было бы пережить, но актеры окончательно портят все дело, из парочки ГГ парень вообще никакой, девка получше, но страшная, старпер просто очередной копеечный заменитель Криса Кристофферсона. Единственный тут нормальный актер это Шон Патрик Флэнери в роли зловещего киллера, поэтому его второстепенного персонажа и разместили на постере, что симптоматично, так как главных только на рулонах сортирной бумаги печатать.
Плохое кино, кривое и унылое, да еще излишне амбициозное, сначала надо научиться снимать, а потом уже крутыми киллерами понтоваться. Даже на один раз с трудом, а можно и вообще не смотреть.

Зарегистрируйтесь чтобы добавить комментарий.
Обратная связь
Copyleft ©