↑↓Torrent.by
Поиск
Логин: Регистрация
Пароль: Восстановить пароль
Загрузка...

BBC. Удивительный мир данных / The Joy of Data (2016) HDTV 1080i | P2

Скачать bbc-udivitelnyy-mir-dannyh-the-joy-of-data-2016-hdtv-1080i-p2.torrent
U Магнитная ссылка Размер: 3.38 GB Раздают: 31 Качают: 15 Добавлен: 2019-01-08 06:51:09
BBC. Удивительный мир данных / The Joy of Data (2016) HDTV  1080i | P2

Название: BBC. Удивительный мир данных
Оригинальное название: The Joy of Data
Год выхода: 2016
Жанр: Документальный, научно-популярный, компьютер, сети, данные
Режиссер: Кэтрин Гейл
Велушая: Ханна Фрай

О фильме:
Их собирают, передают, обрабатывают и пытаются расшифровать. Данные. От новостей и личных сообщений до измерения шагов и частоты сердцебиения. Каждый день люди вращаются в невероятном потоке информации. Можно ли её измерить? Где она хранится? Как получить доступ?

Страна: Великобритания
Студия: BBC, Wingspan Productions Ltd MMXVI
Продолжительность: ~ 00:59:17
Перевод: Профессиональный (двухголосый закадровый)

Файл
Кодек: AVC/H.264
Качество: HDTV  1080i
Видео: 1920x1080 (16:9), 25 fps, AVC (x264), Main@L4, ~ 7556 kbps, 25fps, 0.146 bit/pixel
Звук: Русский 48.0 KHz, AC3 6 ch (Front: L C R, Side: L R, LFE) ch, ~448.00 kbps avg

Семпл

Релиз от: kyba
[+] MediaInfo
Complete name               : F:НаладкиУдивительный мир данных.mkv
Format                      : Matroska
Format version              : Version 4 / Version 2
File size                   : 3.38 GiB
Duration                    : 59 min 17 s
Overall bit rate            : 8 167 kb/s
Encoded date                : UTC 2019-01-07 16:21:12
Writing application         : mkvmerge v6.6.0 ('The Edge Of The In Between') built on Dec  1 2013 17:55:00
Writing library             : libebml v1.3.0 + libmatroska v1.4.1

Video
ID                          : 1
Format                      : AVC
Format/Info                 : Advanced Video Codec
Format profile              : Main@L4
Format settings             : CABAC / 3 Ref Frames
Format settings, CABAC      : Yes
Format settings, ReFrames   : 3 frames
Codec ID                    : V_MPEG4/ISO/AVC
Duration                    : 59 min 17 s
Bit rate                    : 7 556 kb/s
Width                       : 1 920 pixels
Height                      : 1 080 pixels
Display aspect ratio        : 16:9
Frame rate mode             : Constant
Frame rate                  : 25.000 FPS
Color space                 : YUV
Chroma subsampling          : 4:2:0
Bit depth                   : 8 bits
Scan type                   : Interlaced
Scan type, store method     : Separated fields
Scan order                  : Top Field First
Bits/(Pixel*Frame)          : 0.146
Stream size                 : 3.13 GiB (93%)
Default                     : Yes
Forced                      : No
Color range                 : Limited
Color primaries             : BT.709
Transfer characteristics    : BT.709
Matrix coefficients         : BT.709

Audio
ID                          : 2
Format                      : AC-3
Format/Info                 : Audio Coding 3
Codec ID                    : A_AC3
Duration                    : 59 min 17 s
Bit rate mode               : Constant
Bit rate                    : 448 kb/s
Channel(s)                  : 6 channels
Channel positions           : Front: L C R, Side: L R, LFE
Sampling rate               : 48.0 kHz
Frame rate                  : 31.250 FPS (1536 SPF)
Bit depth                   : 16 bits
Compression mode            : Lossy
Stream size                 : 190 MiB (5%)
Language                    : Russian
Service kind                : Complete Main
Default                     : Yes
Forced                      : No



Скриншоты:
[+] Всего файлов в раздаче - 1:
Удивительный мир данных.mkv3.38 GB

Текущая раздача:
ДатаКомментарии    РазмерПиры
2019-01-08 U BBC. Удивительный мир данных / The Joy of Data (2016) HDTV 1080i | P2 3.38 GB ↑ 31 ↓ 15

Похожие раздачи по запросу - удивительный:
2013-10-28 U Удивительный мир Гамбола / The Amazing World of Gumball / Сезон: 1 - весь / Сезон: 2 / 1 - 19 серия из ? [2011] Dub 13.29 GB ↑ 2586 ↓ 545
2013-09-24 U Удивительный мир животных. Пчёлы (2004) PDF 86.45 MB ↑ 983 ↓ 4
2013-09-24 U Удивительный мир животных. Слоны (2003) PDF 83.22 MB ↑ 93 ↓ 15
2013-09-24 U Удивительный мир животных. Медведи (2002) PDF 85.04 MB ↑ 113 ↓ 8

Отзывы
Зарегистрируйтесь чтобы добавить комментарий.
Обратная связь
Copyleft ©