↑↓Torrent.by
Поиск
Логин: Регистрация
Пароль: Восстановить пароль
Загрузка...

Ледяная комета 3D 2: Путешественник во времени / Bing feng: Yong heng zhi men (2018) WEBRip 720p | L2

Скачать ledyanaya-kometa-3d-2-puteshestvennik-vo-vremeni-bing-feng-yong-heng-zhi-men-2018-webrip-720p-l2.torrent
U Магнитная ссылка Размер: 1.88 GB Раздают: 59 Качают: 19 Добавлен: 2019-01-08 06:51:47
Ледяная комета 3D 2: Путешественник во времени / Bing feng: Yong heng zhi men (2018) WEBRip 720p | L2

Название: Ледяная комета 3D 2: Путешественник во времени
Оригинальное название: Bing feng: Yong heng zhi men
Год выхода: 2018
Жанр: Фантастика, боевик, комедия, история
Режиссер: Рэймонд Ип
В ролях: Донни Йен, Баоцян Ван, Ева Хуан, Кан Юй, Саймон Ям, Ясуаки Курата, Ганс Марреро, Минова Ясуфуми
О фильме:
Генерал Древнего Китая Хэ Ин находит могучий артефакт, обладающий властью над временем и пространством. Но стоит ли эта власть прилагающейся ответственности?

Страна: Китай, Гонконг, Zhongmeng Century Media
Продолжительность: 01:27:35
Перевод: Любительский (двухголосый закадровый) | HiWay Grope

Файл
Кодек: MPEG-4 AVC/x.264
Качество: WEBRip 720p
Видео: 1280x534, 24.000 fps, ~2690 kbps, 0.164 bit/pixel
Звук:
Аудио rus: AC3, 48 kHz, 6 ch, 384 Kbps
Субтитры: отсутствуют

Реклама: присутствует

Семпл

Релиз от: HiWay Grope


[+] MediaInfo:

General
Unique ID                                : 329462559490619933534179642798755367585 (0xF7DC2E4EA8C3516FD1D5D65618FD4AA1)
Complete name                            : D:Iceman.The.Time.Traveller.2018.720p.WEBRip.HiWayGropeIceman.The.Time.Traveller.2018.720p.WEBRip.HiWayGrope.mkv
Format                                   : Matroska
Format version                           : Version 4
File size                                : 1.88 GiB
Duration                                 : 1 h 27 min
Overall bit rate                         : 3 076 kb/s
Encoded date                             : UTC 2019-01-07 08:39:21
Writing application                      : mkvmerge v30.0.0 ('Interstellar') 64-bit
Writing library                          : libebml v1.3.6 + libmatroska v1.4.9

Video
ID                                       : 1
Format                                   : AVC
Format/Info                              : Advanced Video Codec
Format profile                           : Main@L4.1
Format settings                          : CABAC / 4 Ref Frames
Format settings, CABAC                   : Yes
Format settings, RefFrames               : 4 frames
Codec ID                                 : V_MPEG4/ISO/AVC
Duration                                 : 1 h 27 min
Bit rate                                 : 2 690 kb/s
Width                                    : 1 280 pixels
Height                                   : 534 pixels
Display aspect ratio                     : 2.40:1
Frame rate mode                          : Constant
Frame rate                               : 24.000 FPS
Color space                              : YUV
Chroma subsampling                       : 4:2:0
Bit depth                                : 8 bits
Scan type                                : Progressive
Bits/(Pixel*Frame)                       : 0.164
Stream size                              : 1.65 GiB (87%)
Language                                 : English
Default                                  : Yes
Forced                                   : No
Color range                              : Limited
Color primaries                          : BT.601 NTSC
Transfer characteristics                 : BT.601
Matrix coefficients                      : BT.601

Audio
ID                                       : 2
Format                                   : AC-3
Format/Info                              : Audio Coding 3
Commercial name                          : Dolby Digital
Codec ID                                 : A_AC3
Duration                                 : 1 h 27 min
Bit rate mode                            : Constant
Bit rate                                 : 384 kb/s
Channel(s)                               : 6 channels
Channel layout                           : L R C LFE Ls Rs
Sampling rate                            : 48.0 kHz
Frame rate                               : 31.250 FPS (1536 SPF)
Bit depth                                : 16 bits
Compression mode                         : Lossy
Stream size                              : 241 MiB (12%)
Language                                 : Russian
Service kind                             : Complete Main
Default                                  : Yes
Forced                                   : No




Скриншоты:
[+] Всего файлов в раздаче - 1:
Iceman.The.Time.Traveller.2018.720p.WEBRip.HiWayGrope.mkv1.88 GB

Текущая раздача:
ДатаКомментарии    РазмерПиры
2019-01-08 U Ледяная комета 3D 2: Путешественник во времени / Bing feng: Yong heng zhi men (2018) WEBRip 720p | L2 1.88 GB ↑ 59 ↓ 19

Похожие раздачи по запросу - ледяная:
2019-01-08 U Ледяная комета 3D 2: Путешественник во времени / Bing feng: Yong heng zhi men (2018) WEBRip | L2 1.22 GB ↑ 66 ↓ 9
2017-11-19 U Сказки без конца 2: Ледяная тропа. Коллекционное Издание (2017) PC 1.26 GB ↑ 408 ↓ 60
2017-05-19 U Ледяная зона / Cold Zone (2017) WEB-DLRip | L 1.37 GB ↑ 226 ↓ 149
2017-01-11 U Ледяная скульптура Рождества / Ice Sculpture Christmas (2015) SATRip | P 1.37 GB ↑ 274 ↓ 39
2015-10-11 U Ледяная угроза / Christmas Icetastrophe (2014) HDRip | P 1.37 GB ↑ 313 ↓ 87

Отзывы
Зарегистрируйтесь чтобы добавить комментарий.
Обратная связь
Copyleft ©