↑↓Torrent.by
Поиск
Логин: Регистрация
Пароль: Восстановить пароль
Загрузка...

Тайна дома с часами / The House with a Clock in Its Walls (2018) HDRip-AVC | D

Скачать tayna-doma-s-chasami-the-house-with-a-clock-in-its-walls-2018-hdrip-avc-d.torrent
U Магнитная ссылка Размер: 744.24 MB Раздают: 52 Качают: 29 Добавлен: 2019-01-08 11:59:49
Тайна дома с часами / The House with a Clock in Its Walls (2018) HDRip-AVC | D

Название: Тайна дома с часами
Оригинальное название: The House with a Clock in Its Walls
Год выпуска: 2018
Жанр:  Фэнтези, ужасы, триллер, комедия, детектив, семейный
Режиссер: Элай Рот
В ролях: Джек Блэк, Кейт Бланшетт, Оуэн Ваккаро, Кайл МакЛахлан, Рене Голдсберри, Коллин Кэмп, Санни Сулджик, Лоренца Иззо, Брэкстон Бьеркен, Ванесса Энн Уильямс

О фильме:
Первое, что услышал Льюис, ступив на порог загадочного особняка своего дяди, — это тиканье часов, раздававшееся из древних стен. Он окунается в мир магии и колдовства, о существовании которого даже не подозревал. Здесь оживают картины, обитают невероятные создания, а сердце дома хранит тайну времени.

Страна: США, Индия, Канада
Студия: DreamWorks, Amblin Entertainment, Mythology Entertainment
Продолжительность: 01:45:03
Перевод: Дубляж [Студия Пифагор] (источник - онлайн кинотеатр.спасибо трекеру Hurtom.)

Файл
Формат: MKV
Качество: HDRip-AVC
Видео: x264, 750x314, 23.976 fps, ~924 kbps
Аудио: AAC, 2 ch, ~64 kbps
Субтитры: Русские (Full), английские

***Релиз от: -=DoMiNo=-


[+] M/I
x264 info: frame I:1480  Avg QP:12.25  size: 43425
x264 info: frame P:29902 Avg QP:14.94  size: 10909
x264 info: frame B:119757 Avg QP:17.02  size:  2819
x264 info: consecutive B-frames:  1.6%  1.4%  5.1% 19.9% 16.7% 36.5%  7.3%  4.4%  4.4%  0.8%  0.6%  0.8%  0.4%

General
Unique ID                   : 135115323773175248247032823138497916428 (0x65A643C9EF5BC3AE03DB7F54FA10EE0C)
Complete name               : Тайна дома с часами_(2018)_HDRIP-AVC_DUB_[-=DoMiNo=-].mkv
Format                      : Matroska
Format version              : Version 4
File size                   : 744 MiB
Duration                    : 1 h 45 min
Overall bit rate            : 990 kb/s
Movie name                  : Тайна дома с часами
Deion                 : Сирота Льюис переезжает жить к своему дяде Джонатану и понимает, что его дядя и их сосед — колдуны. Они ищут тикающие часы в доме Джонатана. Часы отсчитывают время, оставшееся до конца света. Смогут ли эти трое спасти мир от гибели?
Encoded date                : UTC 2019-01-04 16:51:52
Writing application         : mkvmerge v30.1.0 ('Forever And More') 64-bit
Writing library             : libebml v1.3.6 + libmatroska v1.4.9
Attachments                 : poster.jpg
ACTORS                      : Jack Black, Cate Blanchett, Owen Vaccaro, Renée Elise Goldsberry, Sunny Suljic, Kyle MacLachlan, Vanessa Anne Williams, Colleen Camp, Lorenza Izzo, Eli Roth, Braxton Bjerken, Ricky Muse, Charles Green, De'Jon Watts, Aaron Beelner, Joshua Phillips, Christian Calloway, Caleb Lawrence, Dylan Gage Moore, Jalyn Hall, Jackson T. Giles IV, Alli Beckman
COUNTRY                     : Canada, India, United States
DATE                        : 2018-09-15
DIRECTOR                    : Eli Roth
GENRE                       : ужасы, фэнтези, триллер, семейный, детектив
ITUNEXTC                    : ru-movie|12+|200|
ORIGINAL_TITLE              : The House with a Clock in Its Walls
PRODUCER                    : Brad Fischer, Eric Kripke, James Vanderbilt
PUBLISHER                   : Amblin Entertainment, Mythology Entertainment, Reliance Entertainment, Universal Pictures
RATING                      : 5.98
WRITER                      : Eric Kripke

Video
ID                          : 1
Format                      : AVC
Format/Info                 : Advanced Video Codec
Format profile              : High@L4.1
Format settings             : CABAC / 12 Ref Frames
Format settings, CABAC      : Yes
Format settings, ReFrames   : 12 frames
Codec ID                    : V_MPEG4/ISO/AVC
Duration                    : 1 h 45 min
Bit rate                    : 924 kb/s
Width                       : 750 pixels
Height                      : 314 pixels
Display aspect ratio        : 2.40:1
Frame rate mode             : Constant
Frame rate                  : 23.976 (24000/1001) FPS
Color space                 : YUV
Chroma subsampling          : 4:2:0
Bit depth                   : 8 bits
Scan type                   : Progressive
Bits/(Pixel*Frame)          : 0.164
Stream size                 : 694 MiB (93%)
Title                       : RIP_BY_-=DoMiNo=-
Writing library             : x264 core 157 r2935M 545de2f
Encoding settings           : cabac=1 / ref=12 / deblock=1:-3:-3 / analyse=0x3:0x133 / me=umh / subme=11 / psy=1 / psy_rd=1.00:0.05 / mixed_ref=1 / me_range=32 / chroma_me=1 / trellis=2 / 8x8dct=1 / cqm=0 / deadzone=21,11 / fast_pskip=0 / chroma_qp_offset=-3 / threads=6 / lookahead_threads=1 / sliced_threads=0 / nr=0 / decimate=1 / interlaced=0 / bluray_compat=0 / constrained_intra=0 / bframes=12 / b_pyramid=2 / b_adapt=2 / b_bias=0 / direct=3 / weightb=1 / open_gop=0 / weightp=2 / keyint=250 / keyint_min=24 / scenecut=40 / intra_refresh=0 / rc_lookahead=40 / rc=2pass / mbtree=0 / bitrate=924 / ratetol=1.0 / qcomp=0.70 / qpmin=0 / qpmax=69 / qpstep=4 / cplxblur=20.0 / qblur=0.5 / vbv_maxrate=50000 / vbv_bufsize=62500 / nal_hrd=none / filler=0 / ip_ratio=1.40 / pb_ratio=1.30 / aq=3:1.00
Language                    : English
Default                     : Yes
Forced                      : No

Audio
ID                          : 2
Format                      : AAC LC SBR
Format/Info                 : Advanced Audio Codec Low Complexity with Spectral Band Replication
Commercial name             : HE-AAC
Format settings             : Explicit
Codec ID                    : A_AAC-2
Duration                    : 1 h 45 min
Bit rate                    : 64.0 kb/s
Channel(s)                  : 2 channels
Channel layout              : L R
Sampling rate               : 48.0 kHz
Frame rate                  : 23.438 FPS (2048 SPF)
Compression mode            : Lossy
Stream size                 : 48.1 MiB (6%)
Title                       : Дубляж [Студия Пифагор]
Language                    : Russian
Default                     : Yes
Forced                      : No

Text #1
ID                          : 3
Format                      : UTF-8
Codec ID                    : S_TEXT/UTF8
Codec ID/Info               : UTF-8 Plain Text
Duration                    : 1 h 38 min
Bit rate                    : 88 b/s
Count of elements           : 1522
Stream size                 : 64.3 KiB (0%)
Title                       : Full
Language                    : Russian
Default                     : No
Forced                      : No

Text #2
ID                          : 4
Format                      : UTF-8
Codec ID                    : S_TEXT/UTF8
Codec ID/Info               : UTF-8 Plain Text
Duration                    : 1 h 37 min
Bit rate                    : 55 b/s
Count of elements           : 1288
Stream size                 : 39.8 KiB (0%)
Title                       : Full
Language                    : English
Default                     : No
Forced                      : No

Menu
00:00:00.000                : :Глава 01
00:05:32.707                : :Глава 02
00:11:59.635                : :Глава 03
00:16:41.792                : :Глава 04
00:22:41.985                : :Глава 05
00:27:43.536                : :Глава 06
00:31:11.494                : :Глава 07
00:34:58.346                : :Глава 08
00:39:05.843                : :Глава 09
00:44:35.422                : :Глава 10
00:49:56.034                : :Глава 11
00:53:44.221                : :Глава 12
00:58:07.734                : :Глава 13
01:05:02.064                : :Глава 14
01:11:44.842                : :Глава 15
01:15:59.638                : :Глава 16
01:21:33.805                : :Глава 17
01:26:39.986                : :Глава 18
01:33:34.650                : :Глава 19
01:39:03.938                : :Глава 20



Скриншоты:
[+] Всего файлов в раздаче - 1:
Тайна дома с часами_(2018)_HDRIP-AVC_DUB_[-=DoMiNo=-].mkv744.24 MB

Текущая раздача:
ДатаКомментарии    РазмерПиры
2019-01-08 U Тайна дома с часами / The House with a Clock in Its Walls (2018) HDRip-AVC | D 744.24 MB ↑ 52 ↓ 29

Показать еще раздачи по запросу тайна:
2019-01-20 U Тайна дома с часами / The House with a Clock in Its Walls (2018) BDRip 1080p от Generalfilm | Лицензия 5.18 GB ↑ 102 ↓ 47
2019-01-19 U Тайна дома с часами / The House with a Clock in Its Walls (2018) HDRip от Scarabey | Лицензия 1.45 GB ↑ 101 ↓ 23
2019-01-17 U Тайна дома с часами / The House with a Clock in Its Walls (2018) BDRip-AVC от HELLYWOOD | Лицензия 2.18 GB ↑ 80 ↓ 42
2019-01-17 U Тайна дома с часами / The House with a Clock in Its Walls (2018) BDRip 720p от селезень | Лицензия 4.89 GB ↑ 103 ↓ 43
2019-01-17 U Тайна дома с часами / The House with a Clock in Its Walls (2018) BDRip 720p от HELLYWOOD | Лицензия 4.09 GB ↑ 63 ↓ 52
2019-01-17 U Тайна дома с часами / The House with a Clock in Its Walls (2018) BDRip 1080p от селезень | Лицензия 8.82 GB ↑ 171 ↓ 93
2019-01-17 U Тайна дома с часами / The House with a Clock in Its Walls (2018) BDRip от MegaPeer | Лицензия 1.46 GB ↑ 328 ↓ 127

Отзывы
Зарегистрируйтесь чтобы добавить комментарий.
Обратная связь
Copyleft ©