↑↓Torrent.by
Поиск
Логин: Регистрация
Пароль: Восстановить пароль
Загрузка...

Перелом / Fractured (2018) WEBRip-AVC | L2

Скачать perelom-fractured-2018-webrip-avc-l2.torrent
U Магнитная ссылка Размер: 1.24 GB Раздают: 93 Качают: 10 Добавлен: 2019-01-09 03:02:58
Перелом / Fractured (2018) WEBRip-AVC | L2

Название: Перелом
Оригинальное название: Fractured
Год выхода: 2018
Жанр: триллер
Режиссер: Джэми Паттерсон
Сценарий: Джэми Паттерсон
В ролях: Эйприл Пирсон, Карл Дейвис, Луиза Литтон, Джордан Меткалф, Кэлвин Дин.

О фильме:
Молодая пара, Ребекка и Майкл, решает провести выходные за городом и отдохнуть от городской суеты. Добравшись до заветного домика глубоко в английской глуши, они начинают подозревать, что за ними кто-то пристально наблюдает.

Страна: Великобритания
Продолжительность: 01:18:11
Перевод: Любительский (двухголосый закадровый) [HiWay Grope]

Файл
Кодек: х.264
Качество: WEBRip-AVC
Видео: 720x300 (2.40:1), 25.000 fps, AVC MPEG-4 (х.264), High@L3.0 ~1850 kbps, 0.343 bit/pixel
Аудио#1: 48 kHz, AC3 Dolby Digital, 2/0 (L,R) ch, ~192 kbps | DVO - Русский
Аудио#2: 48 kHz, AC3 Dolby Digital, 2/0 (L,R) ch, ~224 kbps | Английский
Субтитры: отсутствуют

Реклама отсутствует.


[+] MediaInfo
General
Unique ID                        : 205125098465413380648633791904124893058 (0x9A51A82DBE5CC1DE6A0C8833CA81F782)
Complete name                    : E:Fractured.2018_Klayd X.mkv
Format                           : Matroska
File size                        : 1.24 GiB
Duration                         : 1h 18mn
Overall bit rate                 : 2 267 Kbps
Encoded date                     : UTC 2018-12-20 21:54:12
Writing application              : mkvmerge v28.2.0 ('The Awakening') 64-bit
Writing library                  : libebml v1.3.6 + libmatroska v1.4.9

Video
ID                               : 1
Format                           : AVC
Format/Info                      : Advanced Video Codec
Format profile                   : High@L3.0
Format settings, CABAC           : Yes
Format settings, ReFrames        : 7 frames
Codec ID                         : V_MPEG4/ISO/AVC
Duration                         : 1h 18mn
Bit rate                         : 1 850 Kbps
Width                            : 720 pixels
Height                           : 300 pixels
Display aspect ratio             : 2.40:1
Frame rate mode                  : Variable
Frame rate                       : 25.000 fps
Color space                      : YUV
Chroma subsampling               : 4:2:0
Bit depth                        : 8 bits
Scan type                        : Progressive
Bits/(Pixel*Frame)               : 0.343
Stream size                      : 1 010 MiB (80%)
Writing library                  : x264 core 148 r2708 86b7198
Encoding settings                : cabac=1 / ref=7 / deblock=1:0:0 / analyse=0x3:0x113 / me=umh / subme=10 / psy=1 / psy_rd=1.00:0.00 / mixed_ref=0 / me_range=26 / chroma_me=1 / trellis=2 / 8x8dct=1 / cqm=0 / deadzone=21,11 / fast_pskip=1 / chroma_qp_offset=-2 / threads=6 / lookahead_threads=1 / sliced_threads=0 / nr=0 / decimate=1 / interlaced=0 / bluray_compat=0 / constrained_intra=0 / bframes=6 / b_pyramid=2 / b_adapt=2 / b_bias=0 / direct=2 / weightb=1 / open_gop=0 / weightp=2 / keyint=250 / keyint_min=25 / scenecut=40 / intra_refresh=0 / rc_lookahead=10 / rc=2pass / mbtree=1 / bitrate=1850 / ratetol=1.0 / qcomp=0.60 / qpmin=0 / qpmax=69 / qpstep=4 / cplxblur=20.0 / qblur=0.5 / ip_ratio=1.40 / aq=1:1.00
Color primaries                  : BT.709-5, BT.1361, IEC 61966-2-4, SMPTE RP177
Transfer characteristics         : BT.709-5, BT.1361
Matrix coefficients              : BT.709-5, BT.1361, IEC 61966-2-4 709, SMPTE RP177

Audio #1
ID                               : 2
Format                           : AC-3
Format/Info                      : Audio Coding 3
Mode extension                   : CM (complete main)
Codec ID                         : A_AC3
Duration                         : 1h 18mn
Bit rate mode                    : Constant
Bit rate                         : 192 Kbps
Channel(s)                       : 2 channels
Channel positions                : Front: L R
Sampling rate                    : 48.0 KHz
Bit depth                        : 16 bits
Compression mode                 : Lossy
Delay relative to video          : -5ms
Stream size                      : 107 MiB (8%)
Language                         : Russian

Audio #2
ID                               : 3
Format                           : AC-3
Format/Info                      : Audio Coding 3
Mode extension                   : CM (complete main)
Codec ID                         : A_AC3
Duration                         : 1h 18mn
Bit rate mode                    : Constant
Bit rate                         : 224 Kbps
Channel(s)                       : 2 channels
Channel positions                : Front: L R
Sampling rate                    : 48.0 KHz
Bit depth                        : 16 bits
Compression mode                 : Lossy
Delay relative to video          : -5ms
Stream size                      : 125 MiB (10%)
Language                         : English



Скриншоты:
[+] Всего файлов в раздаче - 1:
Fractured.2018_Klayd X.mkv1.24 GB

Текущая раздача:
ДатаКомментарии    РазмерПиры
2019-01-09 U Перелом / Fractured (2018) WEBRip-AVC | L2 1.24 GB ↑ 93 ↓ 10

Похожие раздачи по запросу - перелом:
2018-06-18 U Перелом / Fracture (2007) WEB-DL 1080p | D, A | Open Matte 11.11 GB ↑ 33 ↓ 9
2014-05-24 U Открытый перелом / Compound Fracture (2014) WEB-DLRip DeadSno & den904 1.46 GB ↑ 258 ↓ 81
2014-02-08 U Перелом / Fracture (2007) BDRip-AVC от Rulya74 2К1.45 GB ↑ 806 ↓ 8

Отзывы
Зарегистрируйтесь чтобы добавить комментарий.
Обратная связь
Copyleft ©