↑↓Torrent.by
Поиск
Логин: Регистрация
Пароль: Восстановить пароль
Загрузка...

Расплата / The Accountant (2016) BDRip 720p | Лицензия

Скачать rasplata-the-accountant-2016-bdrip-720p-licenziya.torrent
U Магнитная ссылка Размер: 10.04 GB Раздают: 53 Качают: 19 Добавлен: 2019-01-09 03:03:36
Расплата / The Accountant (2016) BDRip 720p | Лицензия

Название: Расплата
Оригинальное название: The Accountant
Год выхода: 2016
Жанр:  боевик, триллер, драма, криминал
Режиссер: Гэвин О’Коннор
В ролях: Бен Аффлек (Christian Wolff), Анна Кендрик (Dana Cummings), Дж.К. Симмонс (Ray King), Джон Бернтал (Brax), Джеффри Тэмбор (Francis Silverberg), Синтия Аддай-Робинсон (Marybeth Medina), Джон Литгоу (Lamar Blackburn), Джин Смарт (Rita Blackburn), Энди Умбергер (Ed Chilton), Элисон Райт (Justine), Джейсон Дэвис (Neurologist), Роберт С. Тревилер (Young Chris' Father)

О фильме: Лента расскажет историю математического гения Кристиана Вульфа, который подрабатывает аудитором для самых опасных преступных организаций. Когда ему на хвост садится отдел по борьбе с преступностью Министерства финансов во главе с Рэем Кингом, Кристиан решает найти себе законопослушного клиента и проводит аудит в компании по производству новейшей робототехники, где сотрудница финансового отдела обнаружила «нестыковочку» в миллионы долларов. Но стоит Кристиану взяться за счета и выйти на след, как в деле начинают появляться жертвы.

MPAA: R - Лицам до 17 лет обязательно присутствие взрослого

Страна: США
Студия: Electric City Entertainment, RatPac-Dune Entertainment, Warner Bros. Pictures
Продолжительность: 02:07:54
Перевод: Профессиональный (дублированный) Blu-ray EUR

Релиз:

Файл
Качество: BDRip 720p
Формат: Matroska
Видео: 1280x536 at 23.976 fps, x264@L4.1, ~8866 kbps avg
Aудио#1: Russian: 48 kHz, AC3, 3/2 (L,C,R,l,r) + LFE ch, ~640 kbps |Дубляж, Blu-ray EUR|
Аудио#2: English: 48 kHz, DTS, 3/2 (L,C,R,l,r) + LFE ch, ~1509 kbps
Субтитры: Russian (Forced, iTunes), Russian (iTunes), English, English (SDH)

***Сохранены оригинальные главы как на Blu-ray.
***Видеоряд - IDE!


[+] Знаете ли вы, что...
Главный герой использует крупнокалиберную снайперскую винтовку Barrett.
Анна Кендрик взяла многие черты своей героини у собственной матери. В своё время та в действительности работала бухгалтером и, чтобы помочь дочери лучше вжиться в роль, специально преподала ей азы бухгалтерии.
Сценарий фильма попал в «чёрный список» 2011 года — список самых многообещающих, но не реализованных сценариев.
Второй совместный проект Анны Кендрик и Дж. К. Симмонса. Они уже снимались вместе в трагикомедии Джейсона Райтмана «Мне бы в небо» (2009).
В трейлере к фильму звучит композиция Everything in its Right Place британской группы Radiohead из четвёртого студийного альбома Kid A (2000). Эта же композиция открывает звуковую дорожку фильма Кэмерона Кроу «Ванильное небо» (2001) с Томом Крузом в главной роли.



[+] MediaInfo
Общее
Уникальный идентификатор                 : 246091641702700944686221505134157599316 (0xB92386B3DACC60BDB4533F0F1D5B9254)
Полное имя                               : The.Accountant.2016.720p.BluRay.Rus.Eng.HDCLUB.mkv
Формат                                   : Matroska
Версия формата                           : Version 2
Размер файла                             : 10,0 Гбайт
Продолжительность                        : 2 ч. 7 м.
Общий поток                              : 11,2 Мбит/сек
Название фильма                          : The Accountant (2016) - Release for HDCLUB
Дата кодирования                         : UTC 2017-01-22 13:06:32
Программа кодирования                    : mkvmerge v3.4.0 ('Rapunzel') built on May 15 2010 09:38:20
Библиотека кодирования                   : libebml v0.8.0 + libmatroska v0.9.0

Видео
Идентификатор                            : 1
Формат                                   : AVC
Формат/Информация                        : Advanced Video Codec
Профиль формата                          : High@L4.1
Параметр CABAC формата                   : Да
Параметр ReFrames формата                : 12 кадров
Идентификатор кодека                     : V_MPEG4/ISO/AVC
Продолжительность                        : 2 ч. 7 м.
Битрейт                                  : 8867 Кбит/сек
Ширина                                   : 1280 пикселей
Высота                                   : 536 пикселей
Соотношение сторон                       : 2,40:1
Режим частоты кадров                     : Постоянный
Частота кадров                           : 23,976 кадра/сек
Цветовое пространство                    : YUV
Субдискретизация насыщенности            : 4:2:0
Битовая глубина                          : 8 бит
Тип развёртки                            : Прогрессивная
Бит/(Пиксели*Кадры)                      : 0.539
Размер потока                            : 7,92 Гбайт (79%)
Заголовок                                : The Accountant (2016) - Release for HDCLUB
Библиотека кодирования                   : x264 core 148 r2721 72d53ab
Настройки программы                      : cabac=1 / ref=12 / deblock=1:-3:-3 / analyse=0x3:0x133 / me=tesa / subme=11 / psy=1 / psy_rd=1.05:0.00 / mixed_ref=1 / me_range=32 / chroma_me=1 / trellis=2 / 8x8dct=1 / cqm=0 / deadzone=21,11 / fast_pskip=0 / chroma_qp_offset=-2 / threads=12 / lookahead_threads=3 / sliced_threads=0 / nr=0 / decimate=0 / interlaced=0 / bluray_compat=0 / constrained_intra=0 / bframes=12 / b_pyramid=2 / b_adapt=2 / b_bias=0 / direct=3 / weightb=1 / open_gop=0 / weightp=2 / keyint=250 / keyint_min=24 / scenecut=40 / intra_refresh=0 / rc_lookahead=150 / rc=crf / mbtree=0 / crf=16.2 / qcomp=0.60 / qpmin=0 / qpmax=69 / qpstep=4 / vbv_maxrate=62500 / vbv_bufsize=78125 / crf_max=0.0 / nal_hrd=none / filler=0 / ip_ratio=1.30 / pb_ratio=1.20 / aq=3:0.77
Язык                                     : English
Default                                  : Да
Forced                                   : Нет

Аудио #1
Идентификатор                            : 2
Формат                                   : AC-3
Формат/Информация                        : Audio Coding 3
Расширение режима                        : CM (complete main)
Параметр Endianness формата              : Big
Идентификатор кодека                     : A_AC3
Продолжительность                        : 2 ч. 7 м.
Вид битрейта                             : Постоянный
Битрейт                                  : 640 Кбит/сек
Каналы                                   : 6 каналов
Расположение каналов                     : Front: L C R, Side: L R, LFE
Частота                                  : 48,0 КГц
Битовая глубина                          : 16 бит
Метод сжатия                             : С потерями
Размер потока                            : 586 Мбайт (6%)
Заголовок                                : AC3 5.1 @ 640 kbps - DUB, Blu-ray CEE
Язык                                     : Russian
Default                                  : Да
Forced                                   : Нет

Аудио #2
Идентификатор                            : 3
Формат                                   : DTS
Формат/Информация                        : Digital Theater Systems
Режим                                    : 16
Параметр Endianness формата              : Big
Идентификатор кодека                     : A_DTS
Продолжительность                        : 2 ч. 7 м.
Вид битрейта                             : Постоянный
Битрейт                                  : 1509 Кбит/сек
Каналы                                   : 6 каналов
Расположение каналов                     : Front: L C R, Side: L R, LFE
Частота                                  : 48,0 КГц
Битовая глубина                          : 16 бит
Метод сжатия                             : С потерями
Размер потока                            : 1,35 Гбайт (13%)
Заголовок                                : DTS 5.1 @ 1536 kbps
Язык                                     : English
Default                                  : Нет
Forced                                   : Нет

Текст #1
Идентификатор                            : 4
Формат                                   : UTF-8
Идентификатор кодека                     : S_TEXT/UTF8
Идентификатор кодека/Информация          : UTF-8 Plain Text
Заголовок                                : Forced, iTunes
Язык                                     : Russian
Default                                  : Да
Forced                                   : Нет

Текст #2
Идентификатор                            : 5
Формат                                   : UTF-8
Идентификатор кодека                     : S_TEXT/UTF8
Идентификатор кодека/Информация          : UTF-8 Plain Text
Заголовок                                : iTunes
Язык                                     : Russian
Default                                  : Нет
Forced                                   : Нет

Текст #3
Идентификатор                            : 6
Формат                                   : UTF-8
Идентификатор кодека                     : S_TEXT/UTF8
Идентификатор кодека/Информация          : UTF-8 Plain Text
Язык                                     : English
Default                                  : Нет
Forced                                   : Нет

Текст #4
Идентификатор                            : 7
Формат                                   : UTF-8
Идентификатор кодека                     : S_TEXT/UTF8
Идентификатор кодека/Информация          : UTF-8 Plain Text
Заголовок                                : SDH
Язык                                     : English
Default                                  : Нет
Forced                                   : Нет

Меню
00:00:00.000                             : en:Chapter 1
00:13:01.447                             : en:Chapter 2
00:20:36.277                             : en:Chapter 3
00:29:30.394                             : en:Chapter 4
00:38:44.656                             : en:Chapter 5
00:49:33.679                             : en:Chapter 6
01:00:05.435                             : en:Chapter 7
01:13:39.707                             : en:Chapter 8
01:25:57.069                             : en:Chapter 9
01:39:15.658                             : en:Chapter 10
01:54:31.156                             : en:Chapter 11
02:01:40.251                             : en:Chapter 12



Скриншоты:
[+] Всего файлов в раздаче - 1:
The.Accountant.2016.720p.BluRay.Rus.Eng.HDCLUB.mkv10.04 GB

Текущая раздача:
ДатаКомментарии    РазмерПиры
2019-01-09 U Расплата / The Accountant (2016) BDRip 720p | Лицензия 10.04 GB ↑ 53 ↓ 19

Показать еще раздачи по запросу расплата:
2019-01-09 U Расплата / The Accountant (2016) WEB-DLRip-AVC | D | Open Matte 2.70 GB ↑ 251 ↓ 28
2018-01-21 U Расплата [01-02 из 02] (2017) HDTVRip 720p от MediaClub 4.05 GB ↑ 79 ↓ 58
2018-01-21 U Расплата [01-02 из 02] (2017) WEB-DLRip-AVC от Files-x 1.97 GB ↑ 71 ↓ 36
2018-01-21 U Расплата [01-02 из 02] (2017) WEB-DLRip от Files-x 2.35 GB ↑ 95 ↓ 39
2018-01-21 U Расплата [01х01-04 из 04] (2017) SATRip-AVC 1.90 GB ↑ 43 ↓ 11
2017-07-01 U Расплата / The Accountant (2016) BDRip-AVC от HELLYWOOD | Лицензия 1.46 GB ↑ 230 ↓ 39
2017-06-17 U Расплата / The Accountant (2016) BDRip 720p от NNNB | D, A, L1 7.95 GB ↑ 69 ↓ 29

Отзывы
Зарегистрируйтесь чтобы добавить комментарий.
Обратная связь
Copyleft ©