↑↓Torrent.by
Поиск
Логин: Регистрация
Пароль: Восстановить пароль
Загрузка...

Люсия и секс / Lucia y el sexo (2001) BDRip 1080p by msltel | P

Скачать lyusiya-i-seks-lucia-y-el-sexo-2001-bdrip-1080p-by-msltel-p.torrent
U Магнитная ссылка Размер: 15.09 GB Раздают: 33 Качают: 35 Добавлен: 2019-01-09 04:38:24
Люсия и секс / Lucia y el sexo (2001) BDRip 1080p by msltel | P

Название: Люсия и секс
Оригинальное название: Lucia y el sexo
Год выпуска: 2001
Страна:  Испания, Франция
Жанр:  драма, мелодрама
Продолжительность: 02:07:51
Перевод: Профессиональный (многоголосый, закадровый)

Режиссёр: Хулио Медем

В ролях: Паз Вега, Тристан Уллоа, Найва Нимри, Дэниэл Фрайр, Елена Анайя, Хавьер Камара, Сильвия Лланос, Диана Суарес, Дэвид Булнес, Арсенио Леон, Хавьер Коромина, Мария Алварез, Хуан Фернандес

Описание: Люсия, молодая официантка из ресторана в центре Мадрида, уезжает на тихий и спокойный остров в Средиземном море после того, как узнает об исчезновении своего возлюбленного, с которым прожила шесть лет. Там, среди восхитительной природы, свежего воздуха и под ярким солнцем, Люсия начинает узнавать самые тёмные уголки её прошлого, проведённого с любимым, как если бы это были запрещённые отрывки из романа, которые автор, находясь вдалеке, ей позволяет теперь прочитать...

Качество: BDRip 1080p Сравнение с исходником
Формат: MKV
Видео: MPEG-4 AVC, 13.9 Mбит/с, 1920x816, 23,976 кадра/с
Аудио 1: русский, DTS, 1509 kbps, 6 ch, 48 kHz [профессиональный многоголосый, R5]
Аудио 2: испанский, DTS, 1509 kbps, 6 ch, 48 kHz [оригинал]
Субтитры 1: русские
Субтитры 2: английские
Имеются неименованные главы/чаптеры.

ВКОНТАКТЕ


[+] Инфо-файл
Общее
Уникальный идентификатор                 : 234468697607433168496438291258518620428 (0xB0650750A6432EC7A6EF6989E7E9490C)
Полное имя                               : D:VideoЛюсия и секс.2001.BDRip.1080p by msltel.mkv
Формат                                   : Matroska
Версия формата                           : Version 4 / Version 2
Размер файла                             : 15,1 Гбайт
Продолжительность                        : 2 ч. 7 м.
Общий поток                              : 16,9 Мбит/сек
Название фильма                          : Rip by msltel
Дата кодирования                         : UTC 2016-11-07 14:06:04
Программа кодирования                    : mkvmerge v8.2.0 ('World of Adventure') 64bit
Библиотека кодирования                   : libebml v1.3.1 + libmatroska v1.4.2

Видео
Идентификатор                            : 1
Формат                                   : AVC
Формат/Информация                        : Advanced Video Codec
Профиль формата                          : High@L4.1
Параметр CABAC формата                   : Да
Параметр ReFrames формата                : 4 кадра
Идентификатор кодека                     : V_MPEG4/ISO/AVC
Продолжительность                        : 2 ч. 7 м.
Битрейт                                  : 13,9 Мбит/сек
Ширина                                   : 1920 пикселей
Высота                                   : 816 пикселей
Соотношение сторон                       : 2,35:1
Режим частоты кадров                     : Постоянный
Частота кадров                           : 23,976 (24000/1001) кадра/сек
Цветовое пространство                    : YUV
Субдискретизация насыщенности            : 4:2:0
Битовая глубина                          : 8 бит
Тип развёртки                            : Прогрессивная
Бит/(Пиксели*Кадры)                      : 0.369
Размер потока                            : 12,4 Гбайт (82%)
Библиотека кодирования                   : x264 core 146 r2538 121396c
Настройки программы                      : cabac=1 / ref=4 / deblock=1:-1:-1 / analyse=0x3:0x113 / me=umh / subme=10 / psy=1 / psy_rd=1.00:0.15 / mixed_ref=1 / me_range=32 / chroma_me=1 / trellis=2 / 8x8dct=1 / cqm=0 / deadzone=21,11 / fast_pskip=0 / chroma_qp_offset=-3 / threads=6 / lookahead_threads=1 / sliced_threads=0 / nr=0 / decimate=1 / interlaced=0 / bluray_compat=0 / constrained_intra=0 / bframes=13 / b_pyramid=2 / b_adapt=2 / b_bias=0 / direct=1 / weightb=1 / open_gop=0 / weightp=2 / keyint=230 / keyint_min=23 / scenecut=40 / intra_refresh=0 / rc_lookahead=40 / rc=crf / mbtree=0 / crf=21.0 / qcomp=0.60 / qpmin=0 / qpmax=69 / qpstep=4 / vbv_maxrate=40000 / vbv_bufsize=50000 / crf_max=0.0 / nal_hrd=none / filler=0 / ip_ratio=1.40 / pb_ratio=1.30 / aq=1:1.00
Язык                                     : Spanish
Default                                  : Да
Forced                                   : Нет

Аудио #1
Идентификатор                            : 2
Формат                                   : DTS
Формат/Информация                        : Digital Theater Systems
Режим                                    : 16
Параметр Endianness формата              : Big
Идентификатор кодека                     : A_DTS
Продолжительность                        : 2 ч. 7 м.
Вид битрейта                             : Постоянный
Битрейт                                  : 1509 Кбит/сек
Каналы                                   : 6 каналов
Расположение каналов                     : Front: L C R, Side: L R, LFE
Частота                                  : 48,0 КГц
Частота кадров                           : 93,750 кадра/сек (512 spf)
Битовая глубина                          : 24 бит
Метод сжатия                             : С потерями
Размер потока                            : 1,35 Гбайт (9%)
Заголовок                                : MVO (R5)
Язык                                     : Russian
Default                                  : Да
Forced                                   : Нет

Аудио #2
Идентификатор                            : 3
Формат                                   : DTS
Формат/Информация                        : Digital Theater Systems
Режим                                    : 16
Параметр Endianness формата              : Big
Идентификатор кодека                     : A_DTS
Продолжительность                        : 2 ч. 7 м.
Вид битрейта                             : Постоянный
Битрейт                                  : 1509 Кбит/сек
Каналы                                   : 6 каналов
Расположение каналов                     : Front: L C R, Side: L R, LFE
Частота                                  : 48,0 КГц
Частота кадров                           : 93,750 кадра/сек (512 spf)
Битовая глубина                          : 24 бит
Метод сжатия                             : С потерями
Размер потока                            : 1,35 Гбайт (9%)
Заголовок                                : original
Язык                                     : Spanish
Default                                  : Нет
Forced                                   : Нет

Текст #1
Идентификатор                            : 4
Формат                                   : UTF-8
Идентификатор кодека                     : S_TEXT/UTF8
Идентификатор кодека/Информация          : UTF-8 Plain Text
Продолжительность                        : 2 ч. 2 м.
Битрейт                                  : 64 бит/сек
Count of elements                        : 1209
Размер потока                            : 57,8 Кбайт (0%)
Заголовок                                : русские
Язык                                     : Russian
Default                                  : Нет
Forced                                   : Нет

Текст #2
Идентификатор                            : 5
Формат                                   : UTF-8
Идентификатор кодека                     : S_TEXT/UTF8
Идентификатор кодека/Информация          : UTF-8 Plain Text
Продолжительность                        : 2 ч. 4 м.
Битрейт                                  : 31 бит/сек
Count of elements                        : 1111
Размер потока                            : 29,2 Кбайт (0%)
Заголовок                                : английские
Язык                                     : English
Default                                  : Нет
Forced                                   : Нет

Меню
00:00:00.000                             : :Chapter 01
00:07:32.617                             : :Chapter 02
00:12:34.753                             : :Chapter 03
00:16:54.555                             : :Chapter 04
00:24:52.782                             : :Chapter 05
00:30:46.135                             : :Chapter 06
00:33:54.574                             : :Chapter 07
00:37:54.271                             : :Chapter 08
00:41:55.596                             : :Chapter 09
00:48:02.670                             : :Chapter 10
00:54:27.847                             : :Chapter 11
01:02:56.981                             : :Chapter 12
01:16:02.599                             : :Chapter 13
01:22:59.474                             : :Chapter 14
01:31:45.500                             : :Chapter 15
01:41:15.944                             : :Chapter 16
01:46:01.063                             : :Chapter 17
01:52:03.633                             : :Chapter 18
02:00:53.663                             : :Chapter 19
02:05:13.339                             : :Chapter 20
02:07:51.663                             : :Chapter 21




Скриншоты:
[+] Всего файлов в раздаче - 1:
Люсия и секс.2001.BDRip.1080p by msltel.mkv15.09 GB

Текущая раздача:
ДатаКомментарии    РазмерПиры
2019-01-09 U Люсия и секс / Lucia y el sexo (2001) BDRip 1080p by msltel | P 15.09 GB ↑ 33 ↓ 35

Похожие раздачи по запросу - люсия:
2017-11-20 U Люсия и секс / Lucia y el sexo (2001) HDRip | P 1.46 GB ↑ 287 ↓ 108

Отзывы
Зарегистрируйтесь чтобы добавить комментарий.
Обратная связь
Copyleft ©