↑↓Torrent.by
Поиск
Логин: Регистрация
Пароль: Восстановить пароль
Загрузка...

Старик с пистолетом / The Old Man & the Gun (2018) WEBRip 720p | L2

Скачать starik-s-pistoletom-the-old-man-gun-2018-webrip-720p-l2.torrent
U Магнитная ссылка Размер: 2.00 GB Раздают: 766 Качают: 165 Добавлен: 2019-01-09 11:14:40
Старик с пистолетом / The Old Man & the Gun (2018) WEBRip 720p | L2

Название: Старик с пистолетом
Оригинальное название: The Old Man & the Gun

Год выхода: 2018
Жанр: Драма, комедия, криминал
Режиссер: Дэвид Лоури
В ролях: Роберт Редфорд, Сисси Спейсек, Кейси Аффлек, Дэнни Гловер, Том Уэйтс, Тика Самптер, Ари Элизабет Джонсон, Тиган Джонсон, Джин Джонс, Джон Дэвид Вашингтон, Элизабет Мосс
О фильме:
Правдивая история неисправимого вора Форреста Таккера, который большую часть жизни посвятил обчищению банков и побегу из тюрем. На закате своей беспокойной «карьеры» 78-летний Таккер снова берётся за любимое дело, невзирая на преследование молодого детектива и обязательства перед преданной женой.

Страна: США
Продолжительность: 01:33:43
Перевод: Любительский (двухголосый закадровый) | HiWay Grope

Файл
Кодек: MPEG-4 AVC/x.264
Качество: WEBRip 720p
Видео: 1280x534, 24.000 fps, ~2668 kbps, 0.163 bit/pixel
Звук:
Аудио rus: AC3, 48 kHz, 6 ch, 384 Kbps
Субтитры: отсутствуют

Реклама: присутствует

Семпл

Релиз от: HiWay Grope


[+] MediaInfo:

General
Unique ID                                : 202763455311985623231144703135660228069 (0x988AD22E7350B8936E5BD4751A85BDE5)
Complete name                            : D:The.Old.Man.and.the.Gun.2018.720p.WEBRip.HiWayGropeThe.Old.Man.and.the.Gun.2018.720p.WEBRip.HiWayGrope.mkv
Format                                   : Matroska
Format version                           : Version 4
File size                                : 2.00 GiB
Duration                                 : 1 h 33 min
Overall bit rate                         : 3 053 kb/s
Encoded date                             : UTC 2019-01-08 15:30:22
Writing application                      : mkvmerge v30.0.0 ('Interstellar') 64-bit
Writing library                          : libebml v1.3.6 + libmatroska v1.4.9

Video
ID                                       : 1
Format                                   : AVC
Format/Info                              : Advanced Video Codec
Format profile                           : Main@L4.1
Format settings                          : CABAC / 4 Ref Frames
Format settings, CABAC                   : Yes
Format settings, RefFrames               : 4 frames
Codec ID                                 : V_MPEG4/ISO/AVC
Duration                                 : 1 h 33 min
Bit rate                                 : 2 668 kb/s
Width                                    : 1 280 pixels
Height                                   : 534 pixels
Display aspect ratio                     : 2.40:1
Frame rate mode                          : Constant
Frame rate                               : 24.000 FPS
Color space                              : YUV
Chroma subsampling                       : 4:2:0
Bit depth                                : 8 bits
Scan type                                : Progressive
Bits/(Pixel*Frame)                       : 0.163
Stream size                              : 1.75 GiB (87%)
Language                                 : English
Default                                  : Yes
Forced                                   : No
Color range                              : Limited
Color primaries                          : BT.601 NTSC
Transfer characteristics                 : BT.601
Matrix coefficients                      : BT.601

Audio
ID                                       : 2
Format                                   : AC-3
Format/Info                              : Audio Coding 3
Commercial name                          : Dolby Digital
Codec ID                                 : A_AC3
Duration                                 : 1 h 33 min
Bit rate mode                            : Constant
Bit rate                                 : 384 kb/s
Channel(s)                               : 6 channels
Channel layout                           : L R C LFE Ls Rs
Sampling rate                            : 48.0 kHz
Frame rate                               : 31.250 FPS (1536 SPF)
Bit depth                                : 16 bits
Compression mode                         : Lossy
Stream size                              : 257 MiB (13%)
Language                                 : Russian
Service kind                             : Complete Main
Default                                  : Yes
Forced                                   : No




Скриншоты:
[+] Всего файлов в раздаче - 1:
The.Old.Man.and.the.Gun.2018.720p.WEBRip.HiWayGrope.mkv2.00 GB

Текущая раздача:
ДатаКомментарии    РазмерПиры
2019-01-09 U Старик с пистолетом / The Old Man & the Gun (2018) WEBRip 720p | L2 2.00 GB ↑ 766 ↓ 165

Показать еще раздачи по запросу старик:
2019-01-14 U Старик с пистолетом / The Old Man & the Gun (2018) BDRip-AVC от ExKinoRay | Яроцкий, BadBajo 2.95 GB ↑ 101 ↓ 37
2019-01-14 U Старик с пистолетом / The Old Man & the Gun (2018) HDRip от Scarabey | L2 1.46 GB ↑ 44 ↓ 10
2019-01-11 U Старик с пистолетом / The Old Man & the Gun (2018) BDRip 1080p | L2, A 13.84 GB ↑ 59 ↓ 37
2019-01-11 U Старик с пистолетом / The Old Man & the Gun (2018) BDRip от MegaPeer | BadBajo 1.46 GB ↑ 71 ↓ 15
2019-01-09 U Старик с пистолетом / The Old Man & the Gun (2018) HDRip от Dalemake | BadBajo 1.45 GB ↑ 132 ↓ 69
2019-01-09 U Старик с пистолетом / The Old Man & the Gun (2018) WEBRip | L2 1.25 GB ↑ 197 ↓ 40
2019-01-09 U Старик с пистолетом / The Old Man & the Gun (2018) WEBRip от ExKinoRay | BadBajo 1.36 GB ↑ 78 ↓ 27

Отзывы
Зарегистрируйтесь чтобы добавить комментарий.
Обратная связь
Copyleft ©