↑↓Torrent.by
Поиск
Логин: Регистрация
Пароль: Восстановить пароль
Загрузка...

Старик с пистолетом / The Old Man & the Gun (2018) WEBRip | L2

Скачать starik-s-pistoletom-the-old-man-gun-2018-webrip-l2.torrent
U Магнитная ссылка Размер: 1.25 GB Раздают: 197 Качают: 40 Добавлен: 2019-01-09 11:14:44
Старик с пистолетом / The Old Man & the Gun (2018) WEBRip | L2

Название: Старик с пистолетом
Оригинальное название: The Old Man & the Gun

Год выхода: 2018
Жанр: Драма, комедия, криминал
Режиссер: Дэвид Лоури
В ролях: Роберт Редфорд, Сисси Спейсек, Кейси Аффлек, Дэнни Гловер, Том Уэйтс, Тика Самптер, Ари Элизабет Джонсон, Тиган Джонсон, Джин Джонс, Джон Дэвид Вашингтон, Элизабет Мосс
О фильме:
Правдивая история неисправимого вора Форреста Таккера, который большую часть жизни посвятил обчищению банков и побегу из тюрем. На закате своей беспокойной «карьеры» 78-летний Таккер снова берётся за любимое дело, невзирая на преследование молодого детектива и обязательства перед преданной женой.

Страна: США
Продолжительность: 01:33:43
Перевод: Любительский (двухголосый закадровый) | HiWay Grope

Файл
Кодек: XviD
Качество: WEBRip
Видео: 720x304, 24 fps, ~1511 kbps, 0.29 bit/pixel
Звук:
Аудио rus: AC3, 48 kHz, 6 ch, 384 Kbps
Субтитры: отсутствуют

Реклама: присутствует

Семпл

Релиз от: HiWay Grope


[+] MediaInfo:

General
Complete name                            : D:The.Old.Man.and.the.Gun.2018.WEBRip.HiWayGropeThe.Old.Man.and.the.Gun.2018.WEBRip.HiWayGrope.avi
Format                                   : AVI
Format/Info                              : Audio Video Interleave
File size                                : 1.25 GiB
Duration                                 : 1 h 33 min
Overall bit rate                         : 1 905 kb/s
Writing application                      : VirtualDubMod 1.5.10.3 (build 2550/release)
Writing library                          : VirtualDubMod build 2550/release

Video
ID                                       : 0
Format                                   : MPEG-4 Visual
Format profile                           : Simple@L5
Format settings                          : BVOP1
Format settings, BVOP                    : 1
Format settings, QPel                    : No
Format settings, GMC                     : No warppoints
Format settings, Matrix                  : Default (MPEG)
Codec ID                                 : XVID
Codec ID/Hint                            : XviD
Duration                                 : 1 h 33 min
Bit rate                                 : 1 512 kb/s
Width                                    : 720 pixels
Height                                   : 304 pixels
Display aspect ratio                     : 2.40:1
Frame rate                               : 24.000 FPS
Color space                              : YUV
Chroma subsampling                       : 4:2:0
Bit depth                                : 8 bits
Scan type                                : Progressive
Compression mode                         : Lossy
Bits/(Pixel*Frame)                       : 0.288
Stream size                              : 1 014 MiB (79%)
Writing library                          : XviD 67

Audio
ID                                       : 1
Format                                   : AC-3
Format/Info                              : Audio Coding 3
Commercial name                          : Dolby Digital
Codec ID                                 : 2000
Duration                                 : 1 h 33 min
Bit rate mode                            : Constant
Bit rate                                 : 384 kb/s
Channel(s)                               : 6 channels
Channel layout                           : L R C LFE Ls Rs
Sampling rate                            : 48.0 kHz
Frame rate                               : 31.250 FPS (1536 SPF)
Bit depth                                : 16 bits
Compression mode                         : Lossy
Stream size                              : 257 MiB (20%)
Alignment                                : Split accross interleaves
Interleave, duration                     : 42  ms (1.00 video frame)
Interleave, preload duration             : 500  ms
Service kind                             : Complete Main




Скриншоты:
[+] Всего файлов в раздаче - 1:
The.Old.Man.and.the.Gun.2018.WEBRip.HiWayGrope.avi1.25 GB

Текущая раздача:
ДатаКомментарии    РазмерПиры
2019-01-09 U Старик с пистолетом / The Old Man & the Gun (2018) WEBRip | L2 1.25 GB ↑ 197 ↓ 40

Показать еще раздачи по запросу старик:
2019-01-14 U Старик с пистолетом / The Old Man & the Gun (2018) BDRip-AVC от ExKinoRay | Яроцкий, BadBajo 2.95 GB ↑ 100 ↓ 37
2019-01-14 U Старик с пистолетом / The Old Man & the Gun (2018) HDRip от Scarabey | L2 1.46 GB ↑ 44 ↓ 10
2019-01-11 U Старик с пистолетом / The Old Man & the Gun (2018) BDRip 1080p | L2, A 13.84 GB ↑ 59 ↓ 37
2019-01-11 U Старик с пистолетом / The Old Man & the Gun (2018) BDRip от MegaPeer | BadBajo 1.46 GB ↑ 71 ↓ 15
2019-01-09 U Старик с пистолетом / The Old Man & the Gun (2018) HDRip от Dalemake | BadBajo 1.45 GB ↑ 131 ↓ 69
2019-01-09 U Старик с пистолетом / The Old Man & the Gun (2018) WEBRip 720p | L2 2.00 GB ↑ 766 ↓ 165
2019-01-09 U Старик с пистолетом / The Old Man & the Gun (2018) WEBRip от ExKinoRay | BadBajo 1.36 GB ↑ 77 ↓ 27

Отзывы
Зарегистрируйтесь чтобы добавить комментарий.
Обратная связь
Copyleft ©