↑↓Torrent.by
Поиск
Логин: Регистрация
Пароль: Восстановить пароль
Загрузка...

Свидетели (2018) WEB-DLRip от GeneralFilm

Скачать svideteli-2018-web-dlrip-ot-generalfilm.torrent
U Магнитная ссылка Размер: 746.14 MB Раздают: 87 Качают: 21 Добавлен: 2019-01-09 11:14:47
Свидетели (2018) WEB-DLRip от GeneralFilm

Оригинальное название: Свидетели
Год выпуска: 2018
Жанр:  Драма, история
Выпущено: Россия, Беларусь, Чехия, Франция, Польша, Израиль, Ark Pictures, Russian Film Group
Режиссер: Константин Фам
В ролях: Оксана Фандера, Филипп Янковский, Владимир Кошевой, Ленн Кудрявицки, Михаил Горевой, Маруся Зыкова, Анжелика Каширина, Вячеслав Чепурченко, Мария Кинг, Сергей Агафонов

О фильме: В начале XX века в мастерской создается уникальная скрипка, предназначенная в подарок еврейскому мальчику. Инструмент попадает в эпицентр трагических событий, становясь их невольным свидетелем. Главный герой фильма до середины жизни был полностью уверен, что знает всё о своей семье, пока не получил полное драматизма и эмоций письмо из прошлого. Тот, кто был таким близким и родным, оказывается совсем другим человеком… Как теперь жить с этой болью? Как найти себя, и вернуться к истокам? Герою предстоит отыскать ответы на эти вопросы и обрести Любовь.

Качество: WEB-DLRip
Видео: XviD build 73, 688x288 (2.40:1), 24.000 fps, 834 Kbps (0.175 bit/pixel)
Аудио: 48.0 kHz, MP3, 2/0 ch, 128 kbps
Продолжительность: 01:47:25
Перевод: Не требуется
Cубтитры: нет

Релиз:


[+] MediaInfo

General
Complete name               : D:RazdachiSvideteli.2018.WEB-DLRip.GeneralFilm.avi
Format                      : AVI
Format/Info                 : Audio Video Interleave
File size                   : 746 MiB
Duration                    : 1 h 47 min
Overall bit rate            : 971 kb/s
Writing application         : VirtualDubMod 1.5.10.3 | www.virtualdub-fr.org || (build 2550/release)
Writing library             : VirtualDubMod build 2550/release

Video
ID                          : 0
Format                      : MPEG-4 Visual
Format profile              : Advanced Simple@L5
Format settings             : BVOP1 / Custom Matrix
Format settings, BVOP       : 1
Format settings, QPel       : No
Format settings, GMC        : No warppoints
Format settings, Matrix     : Custom
Codec ID                    : XVID
Codec ID/Hint               : XviD
Duration                    : 1 h 47 min
Bit rate                    : 834 kb/s
Width                       : 688 pixels
Height                      : 288 pixels
Display aspect ratio        : 2.40:1
Frame rate                  : 24.000 FPS
Color space                 : YUV
Chroma subsampling          : 4:2:0
Bit depth                   : 8 bits
Scan type                   : Progressive
Compression mode            : Lossy
Bits/(Pixel*Frame)          : 0.175
Stream size                 : 641 MiB (86%)
Writing library             : XviD 73

Audio
ID                          : 1
Format                      : MPEG Audio
Format version              : Version 1
Format profile              : Layer 3
Codec ID                    : 55
Codec ID/Hint               : MP3
Duration                    : 1 h 47 min
Bit rate mode               : Constant
Bit rate                    : 128 kb/s
Channel(s)                  : 2 channels
Sampling rate               : 48.0 kHz
Frame rate                  : 41.667 FPS (1152 SPF)
Compression mode            : Lossy
Stream size                 : 98.4 MiB (13%)
Alignment                   : Aligned on interleaves
Interleave, duration        : 42  ms (1.00 video frame)
Interleave, preload duratio : 504  ms
Writing library             : LAME3.99r
Encoding settings           : -m s -V 4 -q 2 -lowpass 17 -b 128



Скриншоты:
[+] Всего файлов в раздаче - 1:
Svideteli.2018.WEB-DLRip.GeneralFilm.avi746.14 MB

Текущая раздача:
ДатаКомментарии    РазмерПиры
2019-01-09 U Свидетели (2018) WEB-DLRip от GeneralFilm 746.14 MB ↑ 87 ↓ 21

Показать еще раздачи по запросу свидетели:
2019-01-12 U Свидетели (2018) WEB-DLRip от Scarabey | iTunes 1.45 GB ↑ 92 ↓ 41
2019-01-09 U Свидетели (2018) WEB-DLRip-AVC от ExKinoRay 1.83 GB ↑ 86 ↓ 28
2019-01-09 U Свидетели (2018) WEB-DLRip от MegaPeer 1.46 GB ↑ 115 ↓ 17
2019-01-09 U Свидетели (2018) WEB-DL 1080p от KORSAR 3.69 GB ↑ 112 ↓ 45
2018-11-03 U Свидетели (2018) TVRip 1.46 GB ↑ 318 ↓ 104
2018-08-19 U Свидетели / Les temoins [S02] (2017) BDRip | ViruseProject 5.58 GB ↑ 94 ↓ 37
2017-06-14 U Свидетели [S02] (2017) HDTVRip от Files-x 11.64 GB ↑ 200 ↓ 103

Отзывы
Зарегистрируйтесь чтобы добавить комментарий.
Обратная связь
Copyleft ©