↑↓Torrent.by
Поиск
Логин: Регистрация
Пароль: Восстановить пароль
Загрузка...

Патриотическая комедия (1992) DVDRip-AVC

Скачать patrioticheskaya-komediya-1992-dvdrip-avc.torrent
U Магнитная ссылка Размер: 2.06 GB Раздают: 108 Качают: 35 Добавлен: 2019-01-09 11:15:03
Патриотическая комедия (1992) DVDRip-AVC

Название: Патриотическая комедия
Год выхода: 1992
Жанр: комедия, фэнтези
Режиссер: Владимир Хотиненко
В ролях: Сергей Маковецкий, Алексей Серебряков, Лариса Гузеева, Леонид Окунев, Елена Шамраева, Сергей Виноградов, Виталий Царегородцев, Вячеслав Воскресенский, Владимир Лысенков, Тамара Зимина, Владимир Пискунов, Любовь Демчук.

О фильме: В ветхом домике, но в самом центре большого города живет русский интеллигент чеховского пошиба Ильин. Живет себе тихо-мирно и до поры до времени не знает, что в старом шкафу находится вход в таинственное подземелье и магическую комнату, из которой можно запросто попасть в любую столицу мира…

Страна: Россия / Евразия
Продолжительность: 01:43:07
Перевод: не требуется

Файл
Качество: DVDRip-AVC
Формат: MKV
Видео: MPEG-4 AVC/H.264, 2600 Кбит/сек, 696x568@720x550
Звук: AC3, 2 ch, 256 Кбит/сек
Субтитры: нет
Дополнительно: Сохранены оригинальные главы (чаптеры)


[+] MediaInfo:
Общее
Уникальный идентификатор                 : 320190033795310714325893485712277651772 (0xF0E25B7E70B3BFD2FB325DFB9666413C)
Полное имя                               : F:Диск2. ФИЛЬМЫ СНГПатриотическая комедия 1992Patrioticheskaja_komedija 03.mkv
Формат                                   : Matroska
Версия формата                           : Version 4
Размер файла                             : 2,06 Гбайт
Продолжительность                        : 1 ч. 43 м.
Общий поток                              : 2856 Кбит/сек
Программа кодирования                    : XviD4PSP 7.0.464 DAILY
Библиотека кодирования                   : Lavf57.71.100
Авторское право                          : [#ZsU®]
ErrorDetectionType                       : Per level 1
Attachments                              : poster.jpg
ENCODING_INFO                            : DVD > MKV Пользовательский / MPEG2 > X264 ABR 2600kbps HQ / AC3 > AC3 CBR 256kbps
Язык                                     : und

Видео
Идентификатор                            : 1
Формат                                   : AVC
Формат/Информация                        : Advanced Video Codec
Профиль формата                          : High@L4.1
Настройки формата                        : CABAC / 11 Ref Frames
Параметр CABAC формата                   : Да
Параметр RefFrames формата               : 11 кадров
Идентификатор кодека                     : V_MPEG4/ISO/AVC
Продолжительность                        : 1 ч. 43 м.
Битрейт                                  : 2600 Кбит/сек
Ширина                                   : 720 пикселей
Высота                                   : 550 пикселей
Соотношение сторон                       : 4:3
Режим частоты кадров                     : Постоянный
Частота кадров                           : 25,000 кадров/сек
Цветовое пространство                    : YUV
Субдискретизация насыщенности            : 4:2:0
Битовая глубина                          : 8 бит
Тип развёртки                            : Прогрессивная
Бит/(Пиксели*Кадры)                      : 0.263
Размер потока                            : 1,83 Гбайт (89%)
Библиотека кодирования                   : x264 core 157 r2935 545de2f
Настройки программы                      : cabac=1 / ref=11 / deblock=1:-3:-3 / analyse=0x3:0x133 / me=umh / subme=11 / psy=1 / psy_rd=1.00:0.20 / mixed_ref=1 / me_range=16 / chroma_me=1 / trellis=2 / 8x8dct=1 / cqm=0 / deadzone=21,11 / fast_pskip=1 / chroma_qp_offset=-3 / threads=12 / lookahead_threads=1 / sliced_threads=0 / nr=0 / decimate=1 / interlaced=0 / bluray_compat=0 / constrained_intra=0 / bframes=11 / b_pyramid=2 / b_adapt=1 / b_bias=10 / direct=1 / weightb=1 / open_gop=0 / weightp=1 / keyint=250 / keyint_min=25 / scenecut=40 / intra_refresh=0 / rc_lookahead=40 / rc=abr / mbtree=1 / bitrate=2600 / ratetol=1.0 / qcomp=0.60 / qpmin=0 / qpmax=69 / qpstep=4 / ip_ratio=1.40 / aq=1:1.00
Default                                  : Да
Forced                                   : Нет
Цветовой диапазон                        : Limited
Основные цвета                           : BT.709
Характеристики трансфера                 : BT.709
Коэффициенты матрицы                     : BT.709

Аудио
Идентификатор                            : 2
Формат                                   : AC-3
Формат/Информация                        : Audio Coding 3
Коммерческое название                    : Dolby Digital
Идентификатор кодека                     : A_AC3
Продолжительность                        : 1 ч. 43 м.
Вид битрейта                             : Постоянный
Битрейт                                  : 256 Кбит/сек
Каналы                                   : 2 канала
Channel layout                           : L R
Частота                                  : 48,0 КГц
Частота кадров                           : 31,250 кадров/сек (1536 SPF)
Битовая глубина                          : 16 бит
Метод сжатия                             : С потерями
Размер потока                            : 189 Мбайт (9%)
Язык                                     : Russian
Default                                  : Да
Forced                                   : Нет

Меню
00:00:00.000                             : :Глава 1
00:11:17.200                             : :Глава 2
00:21:12.000                             : :Глава 3
00:34:05.560                             : :Глава 4
00:44:26.920                             : :Глава 5
00:55:26.600                             : :Глава 6
01:06:42.399                             : :Глава 7
01:19:25.679                             : :Глава 8
01:34:42.199                             : :Глава 9
01:43:06.519                             : :Глава 10



Скриншоты:
[+] Всего файлов в раздаче - 1:
Patrioticheskaja_komedija 03.mkv2.06 GB

Отзывы
Зарегистрируйтесь чтобы добавить комментарий.
Обратная связь
Copyleft ©