↑↓Torrent.by
Поиск
Логин: Регистрация
Пароль: Восстановить пароль
Загрузка...

Дубликат / Jonathan (2018) HDRip | iTunes

Скачать dublikat-jonathan-2018-hdrip-itunes.torrent
U Магнитная ссылка Размер: 2.19 GB Раздают: 197 Качают: 61 Добавлен: 2019-01-09 19:49:28
Дубликат / Jonathan (2018) HDRip | iTunes

Название: Дубликат
Оригинальное название: Jonathan
Год выпуска: 2018
Жанр:  Фантастика, драма
Режиссер: Билл Оливер
В ролях: Энсел Элгорт, Патришия Кларксон, Сьюки Уотерхаус, Мэтт Бомер, Дуглас Ходж, Джо Эгендер, Джефф Ким, Аласка Л. МакФедден, Джули Микельсон, Шунори Раманатхан

О фильме:
Как многие жители Манхэттена, Джонатан просыпается ровно в 7 утра и отправляется на работу, а вечером ложится спать. Вроде бы всё, как у всех. Если бы не одно «но» - каждый день молодой человек проживает две жизни. Пока одна личность спит, вторая ведёт активную жизнь. И каждое утро Джонатану приходит видео от самого себя - о том, что он делал во второй половине дня.Но однажды происходит событие, которое приводит к необратимым последствиям.

Страна: США
Студия: Manis Film, Raised by Wolves
Продолжительность: 01:40:45
Перевод: Профессиональный многоголосый [iTunes]

Файл
Кодек: XviD
Качество: HDRip
Видео: 2279 Кбит/с, 720x304
Звук: Русский (AC3, 6 ch, 384 Кбит/с), английский (AC3, 6 ch, 448 Кбит/с)

Без Рекламы

Релиз:


[+] MI

General
Complete name               : D:Дубликат..2018.HDRip.Kinozal-Reliz.avi
Format                      : AVI
Format/Info                 : Audio Video Interleave
Format profile              : OpenDML
File size                   : 2.19 GiB
Duration                    : 1 h 40 min
Overall bit rate            : 3 113 kb/s
Writing application         : VirtualDubModRus 1.5.10.2 (build 2542/release)
Writing library             : VirtualDubMod build 2542/release

Video
ID                          : 0
Format                      : MPEG-4 Visual
Format profile              : Advanced Simple@L5
Format settings             : BVOP1 / Custom Matrix
Format settings, BVOP       : 1
Format settings, QPel       : No
Format settings, GMC        : No warppoints
Format settings, Matrix     : Custom
Codec ID                    : XVID
Codec ID/Hint               : XviD
Duration                    : 1 h 40 min
Bit rate                    : 2 279 kb/s
Width                       : 720 pixels
Height                      : 304 pixels
Display aspect ratio        : 2.35:1
Frame rate                  : 23.976 (24000/1001) FPS
Color space                 : YUV
Chroma subsampling          : 4:2:0
Bit depth                   : 8 bits
Scan type                   : Progressive
Compression mode            : Lossy
Bits/(Pixel*Frame)          : 0.434
Stream size                 : 1.60 GiB (73%)
Writing library             : XviD 73

Audio #1
ID                          : 1
Format                      : AC-3
Format/Info                 : Audio Coding 3
Commercial name             : Dolby Digital
Codec ID                    : 2000
Duration                    : 1 h 40 min
Bit rate mode               : Constant
Bit rate                    : 384 kb/s
Channel(s)                  : 6 channels
Channel layout              : L R C LFE Ls Rs
Sampling rate               : 48.0 kHz
Frame rate                  : 31.250 FPS (1536 SPF)
Bit depth                   : 16 bits
Compression mode            : Lossy
Stream size                 : 277 MiB (12%)
Alignment                   : Split accross interleaves
Interleave, duration        : 42  ms (1.00 video frame)
Interleave, preload duratio : 500  ms
Service kind                : Complete Main

Audio #2
ID                          : 2
Format                      : AC-3
Format/Info                 : Audio Coding 3
Commercial name             : Dolby Digital
Codec ID                    : 2000
Duration                    : 1 h 37 min
Bit rate mode               : Constant
Bit rate                    : 448 kb/s
Channel(s)                  : 6 channels
Channel layout              : L R C LFE Ls Rs
Sampling rate               : 48.0 kHz
Frame rate                  : 31.250 FPS (1536 SPF)
Bit depth                   : 16 bits
Compression mode            : Lossy
Stream size                 : 312 MiB (14%)
Alignment                   : Split accross interleaves
Interleave, duration        : 43  ms (1.04 video frame)
Interleave, preload duratio : 500  ms
Service kind                : Complete Main



Скриншоты:
[+] Всего файлов в раздаче - 1:
Дубликат..2018.HDRip.Kinozal-Reliz.avi2.19 GB

Текущая раздача:
ДатаКомментарии    РазмерПиры
2019-01-09 U Дубликат / Jonathan (2018) HDRip | iTunes 2.19 GB ↑ 197 ↓ 61

Показать еще раздачи по запросу дубликат:
2019-01-14 U Дубликат / Jonathan (2018) BDRip-AVC от OlLanDGroup | iTunes 1.84 GB ↑ 272 ↓ 9
2019-01-08 U Дубликат / Jonathan (2018) BDRip 720p от селезень | iTunes 3.46 GB ↑ 120 ↓ 40
2019-01-08 U Дубликат / Jonathan (2018) BDRip 1080p от селезень | iTunes 6.20 GB ↑ 127 ↓ 49
2018-11-29 U Дубликат / Jonathan (2018) WEB-DLRip-AVC от OlLanDGroup | iTunes 1.80 GB ↑ 174 ↓ 68
2018-11-29 U Дубликат / Jonathan (2018) WEB-DL 1080p | iTunes 7.30 GB ↑ 99 ↓ 115
2018-11-29 U Дубликат / Jonathan (2018) WEB-DLRip от MegaPeer | iTunes 1.46 GB ↑ 177 ↓ 91
2018-11-25 U Дубликат / Jonathan (2018) WEBRip | L2 1.25 GB ↑ 252 ↓ 29

Отзывы
Зарегистрируйтесь чтобы добавить комментарий.
Обратная связь
Copyleft ©