↑↓Torrent.by
Поиск
Логин: Регистрация
Пароль: Восстановить пароль
Загрузка...

Грецкий орешек (2018) WEB-DLRip-AVC от ExKinoRay | iTunes

Скачать greckiy-oreshek-2018-web-dlrip-avc-ot-exkinoray-itunes.torrent
U Магнитная ссылка Размер: 746.50 MB Раздают: 64 Качают: 42 Добавлен: 2019-01-10 08:34:14
Грецкий орешек (2018) WEB-DLRip-AVC от ExKinoRay | iTunes

Оригинальное название: Грецкий орешек
Год выхода: 2018
Жанр:  Комедия, приключения
Режиссер: Стас Иванов
В ролях: Кирилл Каганович, Антон Васильев, Александр Робак, Полина Толстун, Михаил Пшеничный, Максим Лагашкин, Геннадий Пачис, Мария Болонкина, Антонина Комиссарова, Анастасия Стежко и др.

О фильме :
Кажется, что у Артура всё хорошо. Он молод, остроумен, ведет свое шоу на модном радио, живет с красавицей, на которой собирается жениться. Но! Его избранница вынесла ему мозг. И внезапная страсть к поиску себя подталкивает молодого человека сбежать в Грецию! Там он быстро находит друзей. Вместе они вытворяют такое, что даже местные мафиози не могут пройти мимо. Целая вереница событий и случайностей, опасные и неожиданные моменты поворачивают отпуск совсем в другое русло… Яркая, авантюрная комедия, настоящее путешествие в страну Олимпийского огня и богически красивых дочерей главного греческого мафиози!

Страна: Россия
Студия: «Синемафор», «Медиа Трест»
Продолжительность: 01:29:27
Язык: Русский

Файл
Формат: MKV
Качество: WEB-DLRip-AVC
Видео: MPEG-4 AVC, 800x336, - 1088 Кбит/с
Аудио:  AAC-HE, 2 ch, - 76 Кбит/с
Cубтитры: Нет


[+] MI
Общее
Уникальный идентификатор : 284088095749449075674711435676739205402 (0xD5B9608601BC76D140131F095FBC791A)
Полное имя : D:MOVIESGreckij.Oreshek.2018.ExKinoRay.mkv
Формат : Matroska
Версия формата : Version 2
Размер файла : 747 Мбайт
Продолжительность : 1 ч. 29 м.
Общий поток : 1165 Кбит/сек
Дата кодирования : UTC 2019-01-09 20:34:58
Программа кодирования : mkvmerge v25.0.0 ('Prog Noir') 64-bit
Библиотека кодирования : libebml v1.3.6 + libmatroska v1.4.9

Видео
Идентификатор : 1
Формат : AVC
Формат/Информация : Advanced Video Codec
Профиль формата : High@L4.1
Параметр CABAC формата : Да
Параметр RefFrames формата : 12 кадров
Идентификатор кодека : V_MPEG4/ISO/AVC
Продолжительность : 1 ч. 29 м.
Битрейт : 1088 Кбит/сек
Ширина : 800 пикселей
Высота : 336 пикселей
Соотношение сторон : 2,40:1
Режим частоты кадров : Постоянный
Частота кадров : 24,000 кадра/сек
Цветовое пространство : YUV
Субдискретизация насыщенности : 4:2:0
Битовая глубина : 8 бит
Тип развёртки : Прогрессивная
Бит/(Пиксели*Кадры) : 0.169
Размер потока : 697 Мбайт (93%)
Библиотека кодирования : x264 core 152 r2851kMod ba24899
Настройки программы : cabac=1 / ref=12 / deblock=1:-3:-3 / analyse=0x3:0x133 / me=umh / subme=10 / psy=1 / fade_compensate=0.00 / psy_rd=1.00:0.15 / mixed_ref=1 / me_range=32 / chroma_me=1 / trellis=2 / 8x8dct=1 / cqm=0 / deadzone=21,11 / fast_pskip=0 / chroma_qp_offset=-3 / threads=6 / lookahead_threads=1 / sliced_threads=0 / nr=0 / decimate=0 / interlaced=0 / bluray_compat=0 / constrained_intra=0 / bframes=11 / b_pyramid=2 / b_adapt=2 / b_bias=0 / direct=3 / weightb=1 / open_gop=0 / weightp=2 / keyint=240 / keyint_min=23 / scenecut=40 / intra_refresh=0 / rc_lookahead=40 / rc=2pass / mbtree=1 / bitrate=1088 / ratetol=1.0 / qcomp=0.60 / qpmin=0 / qpmax=69 / qpstep=4 / cplxblur=20.0 / qblur=0.5 / ip_ratio=1.40 / aq=3:1.00
Default : Да
Forced : Нет

Аудио
Идентификатор : 2
Формат : AAC
Формат/Информация : Advanced Audio Codec
Профиль формата : HE-AAC / LC
Идентификатор кодека : A_AAC
Продолжительность : 1 ч. 29 м.
Битрейт : 76,0 Кбит/сек
Каналы : 2 канала
Расположение каналов : Front: L R
Частота : 48,0 КГц / 24,0 КГц
Частота кадров : 23,438 кадра/сек (1024 SPF)
Метод сжатия : С потерями
Задержка видео : 31 мс.
Размер потока : 48,7 Мбайт (7%)
Язык : Russian
Default : Да
Forced : Нет



Скриншоты:
[+] Всего файлов в раздаче - 1:
Greckij.Oreshek.2018.ExKinoRay.mkv746.50 MB

Похожие раздачи по запросу - грецкий:
2019-01-11 U Грецкий орешек (2018) WEB-DLRip-AVC от ExKinoRay | iTunes 1.29 GB ↑ 291 ↓ 57
2019-01-10 U Грецкий орешек (2018) WEB-DL 1080p | iTunes 3.27 GB ↑ 814 ↓ 231
2019-01-09 U Грецкий орешек (2018) WEB-DLRip от GeneralFilm | iTunes 746.05 MB ↑ 211 ↓ 88
2019-01-09 U Грецкий орешек (2018) WEB-DLRip | iTunes 1.46 GB ↑ 1835 ↓ 506

Отзывы
Зарегистрируйтесь чтобы добавить комментарий.
Обратная связь
Copyleft ©