↑↓Torrent.by
Поиск
Логин: Регистрация
Пароль: Восстановить пароль
Загрузка...

Французский попутчик (2017) WEB-DLRip от Files-x

Скачать francuzskiy-poputchik-2017-web-dlrip-ot-files-x.torrent
U Магнитная ссылка Размер: 1.37 GB Раздают: 301 Качают: 139 Добавлен: 2019-01-10 15:38:45
Французский попутчик  (2017) WEB-DLRip от Files-x

Оригинальное название: Французский попутчик
Год выпуска: 2017
Жанр:  Боевик
Режиссер: Алексей Феоктистов
В ролях: Кирилл Плетнёв, Мария Андреева, Надежда Жарычева, Борис Клюев, Олег Карин

О фильме: Студентка Елена Михалушкина летит в другую страну на опознание отца, погибшего в авиакатастрофе. Еще в российском аэропорту она знакомится с Андреем Егоровым, который уже несколько лет живет и работает за границей и возвращается теперь туда. Молодой человек вызывается помочь хорошенькой девушке, которая не знает языка и совсем одна в незнакомой стране. Он сопровождает ее в госпиталь и в гостиницу. После того как они расстаются у отеля, Андрей становится свидетелем того, как на Елену нападают неизвестные и пытаются похитить ее. Егоров бросается ей на помощь и расправляется с нападавшими. Андрей с Леной пытаются понять, кому и что нужно от девушки. Но вопросов больше, чем ответов… Андрею еще не раз придется спасать Елену. Но преступникам все же удастся осуществить свою цель и похитить Елену, причем уже в России, куда Егоров вывезет девушку. Теперь Андрей должен вырвать Лену, которую уже успел полюбить, из лап злодеев. Он обязан это сделать еще и потому, что их последняя встреча закончилась ссорой. Девушка начала догадываться, что Андрей не просто так оказался рядом с ней в самолете — он совсем не тот, за кого себя выдает…

Выпущено: Россия
Студия: Стар Гелакси, Star Media
Продолжительность: 01:26:46
Перевод: Не требуется

Файл
Качество: WEB-DLRip
Видео: XviD, ~ 2064 Кбит/с, 720x400
Аудио: AC3, 2 ch, 192 Кбит/с

Релиз:


[+] MediaInfo
General
Complete name                    : C:UsersuserDownloadsVideoFrancuzskiy.poputchik.2017.WEB-DLRip. Files-x.avi
Format                           : AVI
Format/Info                      : Audio Video Interleave
File size                        : 1.37 GiB
Duration                         : 1h 26mn
Overall bit rate                 : 2 266 Kbps
Writing application              : VirtualDubMod 1.5.10.3 | www.virtualdub-fr.org || (build 2550/release)
Writing library                  : VirtualDubMod build 2550/release

Video
ID                               : 0
Format                           : MPEG-4 Visual
Format profile                   : Advanced Simple@L5
Format settings, BVOP            : 1
Format settings, QPel            : No
Format settings, GMC             : No warppoints
Format settings, Matrix          : Custom
Codec ID                         : XVID
Codec ID/Hint                    : XviD
Duration                         : 1h 26mn
Bit rate                         : 2 064 Kbps
Width                            : 720 pixels
Height                           : 400 pixels
Display aspect ratio             : 16:9
Frame rate                       : 25.000 fps
Color space                      : YUV
Chroma subsampling               : 4:2:0
Bit depth                        : 8 bits
Scan type                        : Progressive
Compression mode                 : Lossy
Bits/(Pixel*Frame)               : 0.287
Stream size                      : 1.25 GiB (91%)
Writing library                  : XviD 73

Audio
ID                               : 1
Format                           : AC-3
Format/Info                      : Audio Coding 3
Mode extension                   : CM (complete main)
Codec ID                         : 2000
Duration                         : 1h 26mn
Bit rate mode                    : Constant
Bit rate                         : 192 Kbps
Channel(s)                       : 2 channels
Channel positions                : Front: L R
Sampling rate                    : 48.0 KHz
Bit depth                        : 16 bits
Compression mode                 : Lossy
Stream size                      : 119 MiB (8%)
Alignment                        : Split accross interleaves
Interleave, duration             : 40 ms (1.00 video frame)
Interleave, preload duration     : 500 ms



Скриншоты:
[+] Всего файлов в раздаче - 1:
Francuzskiy.poputchik.2017.WEB-DLRip. Files-x.avi1.37 GB

Текущая раздача:
ДатаКомментарии    РазмерПиры
2019-01-10 U Французский попутчик (2017) WEB-DLRip от Files-x 1.37 GB ↑ 301 ↓ 139

Показать еще раздачи по запросу французский:
2019-01-12 U Французский попутчик (2017) WEB-DLRip от Generalfilm | КПК 329.81 MB ↑ 50 ↓ 8
2019-01-11 U Французский попутчик (2017) WEB-DLRip от GeneralFilm 745.72 MB ↑ 134 ↓ 34
2019-01-10 U Французский попутчик (2017) WEB-DL 1080p 3.21 GB ↑ 230 ↓ 181
2019-01-10 U Французский попутчик (2017) WEB-DLRip-AVC от Files-x 1.37 GB ↑ 286 ↓ 124
2018-03-27 U Французский транзит / La French (2014) BDRip-AVC | D 1К3.30 GB ↑ 48 ↓ 20
2014-09-19 U Французский шпион (2014) DVDRip | Лицензия 1.37 GB ↑ 2499 ↓ 52
2013-09-20 U Полиглот. Французский с нуля за 16 часов! [01-16 из 16] (2012) SATRip 4.31 GB ↑ 1726 ↓ 8

Отзывы
Зарегистрируйтесь чтобы добавить комментарий.
Обратная связь
Copyleft ©