↑↓Torrent.by
Поиск
Логин: Регистрация
Пароль: Восстановить пароль
Загрузка...

Агент Джонни Инглиш 3.0 / Johnny English Strikes Again (2018) BDRip 720p от селезень | Лицензия

Скачать agent-dzhonni-inglish-3-0-johnny-english-strikes-again-2018-bdrip-720p-ot-selezen-licenziya.torrent
U Магнитная ссылка Размер: 4.77 GB Раздают: 101 Качают: 38 Добавлен: 2019-01-11 05:43:54
Агент Джонни Инглиш 3.0 / Johnny English Strikes Again (2018) BDRip 720p от селезень | Лицензия

Название: Агент Джонни Инглиш 3.0
Оригинальное название: Johnny English Strikes Again
Год выхода: 2018
Жанр: Боевик, комедия, приключения
Режиссер: Дэвид Керр
В ролях: Роуэн Аткинсон, Эмма Томпсон, Ольга Куриленко, Джейк Лэси, Бен Миллер, Миранда Хеннесси, Адам Джеймс, Пиппа Беннетт-Уорнер, Ирена Тишина, Джеймс Илс

О фильме: Когда все агенты секретной службы Её Величества внезапно выходят из строя, в игру вступает запасной вариант. Образец английского стиля и любимец роковых красоток; король безвыходных ситуаций и хранитель аналоговых традиций в цифровом мире, агент Джонни Инглиш — боль и гордость британской разведки. Этому парню есть что взбалтывать, и он взболтает не по-детски.

Страна: Великобритания, Франция, США
Студия: Universal Pictures, Studio Canal, Working Title Films, Perfect World Pictures
Продолжительность: 01:28:33
Перевод: Дублированный | Лицензия

Качество: BDRip 720p
Видео: MPEG-4 AVC, 1280x536, 5000 Kbit/s, 23.976 fps
Звук:
Аудио #01: 48 kHz, DTS, 5.1, 768 Kbps | Дублированный | RUS |
Аудио #02: 48 kHz, AC3, 5.1, 448 Kbps | Дублированный | RUS |
Аудио #03: 48 kHz, DTS, 5.1, 1510 Kbps | Оригинал |  ENG |
Субтитры: Русские (Forced, full), английские

Релиз:


[+] MI
General
Unique ID                   : 190175494163842980583041842621460879668 (0x8F1277C7A18E60558F420457AFE19934)
Complete name               : D:Video111Johnny.English.Strikes.Again.2018.Lic.BDRip.720p.seleZen.mkv
Format                      : Matroska
Format version              : Version 4
File size                   : 4.77 GiB
Duration                    : 1 h 28 min
Overall bit rate            : 7 713 kb/s
Movie name                  : Johnny English Strikes Again 2018 from селезень
Encoded date                : UTC 2019-01-10 19:02:59
Writing application         : mkvmerge v29.0.0 ('Like It Or Not') 64-bit
Writing library             : libebml v1.3.6 + libmatroska v1.4.9

Video
ID                          : 1
Format                      : AVC
Format/Info                 : Advanced Video Codec
Format profile              : High@L4.1
Format settings             : CABAC / 12 Ref Frames
Format settings, CABAC      : Yes
Format settings, ReFrames   : 12 frames
Codec ID                    : V_MPEG4/ISO/AVC
Duration                    : 1 h 28 min
Bit rate                    : 5 000 kb/s
Width                       : 1 280 pixels
Height                      : 536 pixels
Display aspect ratio        : 2.40:1
Frame rate mode             : Constant
Frame rate                  : 23.976 (24000/1001) FPS
Color space                 : YUV
Chroma subsampling          : 4:2:0
Bit depth                   : 8 bits
Scan type                   : Progressive
Bits/(Pixel*Frame)          : 0.304
Stream size                 : 3.08 GiB (65%)
Title                       : seleZen
Writing library             : x264 core 148 r2705kMod 3f5ed56
Encoding settings           : cabac=1 / ref=12 / deblock=1:-2:-2 / analyse=0x3:0x133 / me=umh / subme=11 / psy=1 / fade_compensate=0.00 / psy_rd=1.05:0.05 / mixed_ref=1 / me_range=48 / chroma_me=1 / trellis=2 / 8x8dct=1 / cqm=0 / deadzone=21,11 / fast_pskip=0 / chroma_qp_offset=-3 / threads=12 / lookahead_threads=3 / sliced_threads=0 / nr=0 / decimate=0 / interlaced=0 / bluray_compat=0 / constrained_intra=0 / fgo=0 / bframes=10 / b_pyramid=2 / b_adapt=2 / b_bias=0 / direct=3 / weightb=1 / open_gop=0 / weightp=2 / keyint=240 / keyint_min=23 / scenecut=40 / intra_refresh=0 / rc_lookahead=50 / rc=2pass / mbtree=0 / bitrate=5000 / ratetol=1.0 / qcomp=0.60 / qpmin=0 / qpmax=51 / qpstep=4 / cplxblur=20.0 / qblur=0.5 / vbv_maxrate=50000 / vbv_bufsize=62500 / nal_hrd=none / filler=0 / ip_ratio=1.40 / pb_ratio=1.30 / aq=3:0.80
Language                    : English
Default                     : Yes
Forced                      : No

Audio #1
ID                          : 2
Format                      : DTS
Format/Info                 : Digital Theater Systems
Codec ID                    : A_DTS
Duration                    : 1 h 28 min
Bit rate mode               : Constant
Bit rate                    : 768 kb/s
Channel(s)                  : 6 channels
Channel layout              : C L R Ls Rs LFE
Sampling rate               : 48.0 kHz
Frame rate                  : 93.750 FPS (512 SPF)
Bit depth                   : 24 bits
Compression mode            : Lossy
Stream size                 : 486 MiB (10%)
Title                       : Dub [License]
Language                    : Russian
Default                     : Yes
Forced                      : Yes

Audio #2
ID                          : 3
Format                      : AC-3
Format/Info                 : Audio Coding 3
Commercial name             : Dolby Digital
Codec ID                    : A_AC3
Duration                    : 1 h 28 min
Bit rate mode               : Constant
Bit rate                    : 448 kb/s
Channel(s)                  : 6 channels
Channel layout              : L R C LFE Ls Rs
Sampling rate               : 48.0 kHz
Frame rate                  : 31.250 FPS (1536 SPF)
Bit depth                   : 16 bits
Compression mode            : Lossy
Stream size                 : 284 MiB (6%)
Title                       : Dub [License]
Language                    : Russian
Service kind                : Complete Main
Default                     : No
Forced                      : No

Audio #3
ID                          : 4
Format                      : DTS
Format/Info                 : Digital Theater Systems
Codec ID                    : A_DTS
Duration                    : 1 h 28 min
Bit rate mode               : Constant
Bit rate                    : 1 509 kb/s
Channel(s)                  : 6 channels
Channel layout              : C L R Ls Rs LFE
Sampling rate               : 48.0 kHz
Frame rate                  : 93.750 FPS (512 SPF)
Bit depth                   : 24 bits
Compression mode            : Lossy
Stream size                 : 956 MiB (20%)
Title                       : Original
Language                    : English
Default                     : No
Forced                      : No

Text #1
ID                          : 5
Format                      : UTF-8
Codec ID                    : S_TEXT/UTF8
Codec ID/Info               : UTF-8 Plain Text
Duration                    : 1 h 27 min
Bit rate                    : 0 b/s
Count of elements           : 15
Stream size                 : 459 Bytes (0%)
Title                       : Forced
Language                    : Russian
Default                     : Yes
Forced                      : Yes

Text #2
ID                          : 6
Format                      : UTF-8
Codec ID                    : S_TEXT/UTF8
Codec ID/Info               : UTF-8 Plain Text
Duration                    : 1 h 27 min
Bit rate                    : 69 b/s
Count of elements           : 1007
Stream size                 : 44.4 KiB (0%)
Title                       : Full
Language                    : Russian
Default                     : No
Forced                      : No

Text #3
ID                          : 7
Format                      : UTF-8
Codec ID                    : S_TEXT/UTF8
Codec ID/Info               : UTF-8 Plain Text
Duration                    : 1 h 22 min
Bit rate                    : 56 b/s
Count of elements           : 1022
Stream size                 : 34.3 KiB (0%)
Title                       : Full
Language                    : English
Default                     : No
Forced                      : No

Menu
00:00:00.000                : :Chapter 01
00:05:06.681                : :Chapter 02
00:09:05.378                : :Chapter 03
00:13:14.794                : :Chapter 04
00:19:22.369                : :Chapter 05
00:21:31.832                : :Chapter 06
00:26:41.975                : :Chapter 07
00:32:31.240                : :Chapter 08
00:34:48.086                : :Chapter 09
00:39:49.428                : :Chapter 10
00:45:49.121                : :Chapter 11
00:51:22.204                : :Chapter 12
00:54:31.851                : :Chapter 13
00:58:58.201                : :Chapter 14
01:02:58.441                : :Chapter 15
01:08:21.597                : :Chapter 16
01:11:40.963                : :Chapter 17
01:15:03.415                : :Chapter 18
01:20:54.808                : :Chapter 19
01:23:52.527                : :Chapter 20



Скриншоты:
[+] Всего файлов в раздаче - 1:
Johnny.English.Strikes.Again.2018.Lic.BDRip.720p.seleZen.mkv4.77 GB

Текущая раздача:
ДатаКомментарии    РазмерПиры
2019-01-11 U Агент Джонни Инглиш 3.0 / Johnny English Strikes Again (2018) BDRip 720p от селезень | Лицензия 4.77 GB ↑ 101 ↓ 38

Показать еще раздачи по запросу агент:
2019-01-16 U Агент Джонни Инглиш 3.0 / Johnny English Strikes Again (2018) UHD BDRemux 2160p от селезень | 4K | HDR | Лицензия 34.50 GB ↑ 52 ↓ 35
2019-01-12 U Агент Джонни Инглиш 3.0 / Johnny English Strikes Again (2018) BDRip от ExKinoRay | Лицензия 1.46 GB ↑ 2 ↓ 251
2019-01-11 U Агент Джонни Инглиш 3.0 / Johnny English Strikes Again (2018) BDRemux 1080p от селезень | Лицензия 20.79 GB ↑ 175 ↓ 116
2019-01-11 U Агент Джонни Инглиш 3.0 / Johnny English Strikes Again (2018) HDRip от Scarabey | Лицензия 1.45 GB ↑ 215 ↓ 12
2019-01-11 U Агент Джонни Инглиш 3.0 / Johnny English Strikes Again (2018) BDRip-AVC от HELLYWOOD | Лицензия 2.18 GB ↑ 466 ↓ 90
2019-01-11 U Агент Джонни Инглиш 3.0 / Johnny English Strikes Again (2018) BDRip-AVC от ExKinoRay | Лицензия 1.57 GB ↑ 71 ↓ 22
2019-01-11 U Агент Джонни Инглиш 3.0 / Johnny English Strikes Again (2018) HDRip от Generalfilm | КПК | iTunes 335.29 MB ↑ 42 ↓ 8

Отзывы
Зарегистрируйтесь чтобы добавить комментарий.
Обратная связь
Copyleft ©